Ссылка на приватное зеркало всего за 1$. Внимание количество ограничено!!!

iTunes

1+1

iTunes

мы

WEB-DL

1

iTunes

Чернобыль

iTunes

Ральф против интернета

Лицензия

ПШазам

Лицензия

Оно 2

Лицензия

30
pack

Вам бонус

ВАЖНО

!!Акция!!

Alien_RageХит недели

RePack

Resident Evil 21

ИГРА 18+

pack

RePack

jed

!!Акция!!

Alien_Rage

RePack

fifa19

RePack

Assassins Creed: Odyssey

RePack

NEED FOR SPEED™ PAYBACK

3 сезон

9 сезон

Бесстыжие 9 сезон

Все сериалы

все сериалы на PB.wtf

RePack

FAR CRY 5
Ребята, катастрофически не хватает 1900р. для оплаты серверов за Октябрь (всвязи с блокировками трафик упал в 3 раза), 1-2р., выручайте.
  

Входящий / Incoming (Эрик Сарагоса) [2018, фантастика, боевик, триллер, WEBRip] MVO [HDrezka Studio] pb.wtf

Входящий через торрент pb.wtf

Раздают: 1 [ 0 KB/s ]
Размер: 1.46 GB | Добавлен: 1 год 6 мес. назад | Торрент скачан:491 раз
Скачать  

17-05-2018 08:44 Входящий Скачать торрент  

Входящий / IncomingГод выпуска: 2018
Страна: Сербия
Жанр: фантастика, боевик, триллер
Продолжительность: 01:29:06
Перевод: Профессиональный (многоголосый) | HDRezka studio
Субтитры: отсутствуют

Режиссер: Эрик Сарагоса

rating

В ролях:

Скотт Эдкинс, Доминик Пауэр, Аарон МакКаскер, Алаа Умузун, Арки Аломар, Лукас Лоугрэн, Миодраг Капор, Владан Дужович

Описание:

Международная космическая станция превратилась в секретную тюрьму, из которой никто не выходит, и никто не знает, что именно там происходит. Когда заключенные террористы захватывают станцию ??и направляют её на Москву, только пилот и новичок-доктор могут остановить их. Эта задача усложняется бывшим агентом ЦРУ, у которого свои планы и на станцию, и на террористов...

Качество: WEBRip
Формат: AVI

Видео: 720x320 (2.25:1), 23.976 fps, XviD ~1 946 kbps avg
Аудио: 48.0 kHz, AC3 Dolby Digital, 2/0 (L,R) ch, ~384 kbps | RUS | HDrezka Studio


Дата премьеры (мир): 4 мая 2018
скриншот   скриншот   скриншот   [th]http://pic1.kartinco.top/images/11/u9p2u.jpg[/th]

General
Complete name : Incoming (2018) WEBRip.avi
Format : AVI
Format/Info : Audio Video Interleave
File size : 1.46 GiB
Duration : 1h 29mn
Overall bit rate : 2 340 Kbps
Writing application : VirtualDubMod 1.5.10.3 | (build 2550/release)
Writing library : VirtualDubMod build 2550/release

Video
ID : 0
Format : MPEG-4 Visual
Format profile : Advanced Simple@L5
Format settings, BVOP : 1
Format settings, QPel : No
Format settings, GMC : No warppoints
Format settings, Matrix : Custom
Codec ID : XVID
Codec ID/Hint : XviD
Duration : 1h 29mn
Bit rate : 1 946 Kbps
Width : 720 pixels
Height : 320 pixels
Display aspect ratio : 2.25:1
Frame rate : 23.976 fps
Color space : YUV
Chroma subsampling : 4:2:0
Bit depth : 8 bits
Scan type : Progressive
Compression mode : Lossy
Bits/(Pixel*Frame) : 0.352
Stream size : 1.21 GiB (83%)
Writing library : XviD 1.2.1 (UTC 2008-12-04)

Audio
ID : 1
Format : AC-3
Format/Info : Audio Coding 3
Mode extension : CM (complete main)
Format settings, Endianness : Big
Codec ID : 2000
Duration : 1h 29mn
Bit rate mode : Constant
Bit rate : 384 Kbps
Channel(s) : 2 channels
Channel positions : Front: L R
Sampling rate : 48.0 KHz
Compression mode : Lossy
Stream size : 245 MiB (16%)
Alignment : Split accross interleaves
Interleave, duration : 42 ms (1.00 video frame)
Interleave, preload duration : 500 ms

pb.wtf



Скачать Входящий через торрент http://c.radikal.ru/c15/1805/ba/84cf2cbb68f6.png Скачать фильм Входящий через торрент бесплантно в хорошем качестве Описание: Международная космическая станция превратилась в секретную тюрьму, из которой никто не выходит, и никто не знает, что именно там ... 8.8 10 18
Info! Золотая раздача, скачанное не засчитывается.
Торрент: Зарегистрирован [2018-05-17 08:44] · скачан: 491 раз
Статус: T временная
Размер: 1.46 GB
Как cкачать? Как скачать Входящий через торрент | qTorrent

% Раздел Тема Автор DL S | L
T Фильмы (WEB-DL 720p, 1080p) [ 2.69 GB ] Входящий / Incoming [2018 WEBRip 720p] MVO [HDrezka Studio] bober100 Скачать
1 | 0
T Фильмы (WEB-DL 720p, 1080p) [ 3.33 GB ] Входящий / Incoming [2018 WEBRip 1080p] MVO [HDrezka Studio] bober100 Скачать
1 | 0

28-11-2019 20:33  

Отключить всю рекламу на сайте

17-05-2018 13:10 Входящий Скачать торрент  

))))))))))))))))))))))))0pb.wtf



23-05-2018 15:01 Входящий Скачать торрент  

Сценарий просто поразил. Долго смеялся )pb.wtf



    Дорогой пользователь! Огромная просьба, поблагодарите релизера, оцените раздачу и оставьте свои комментарий, если Вы скачали Входящий через торрент бесплатно! Внесите свою лепту в развитие PiratBit!
    Комментировать посты могут только пользователи прошедшие не сложную регистрацию
    Показать сообщения:    

    Входящий через торрент
    Скачать бесплатно Входящий
    Входящий скачать торрент
    Входящий смотреть онлайн
    Cкачать фильм Входящий бесплатно
    Входящий скачать торрент в хорошем качестве
    Входящий смотреть онлайн бесплатно в хорошем качестве


    Вы не можете начинать темы
    Вы не можете отвечать на сообщения
    Вы не можете редактировать свои сообщения
    Вы не можете удалять свои сообщения
    Вы не можете голосовать в опросах
    Вы не можете прикреплять файлы к сообщениям
    Вы можете скачивать файлы