Всегда рабочее зеркало без VPN и Proxy просто перед .vidak.icu напиши любое слово или цифру, Пример http://qg8t.vidak.icu

Лицензия

MVO

1 сезон

1

1 сезон

iTunes

1 сезон

13

1 сезон

Deluxe

pack

Рекомендуем

Repack

30

ВАЖНО

RePack

MK11

RePack

jed

RePack

fifa19

RePack

RDR2

RePack

NEED FOR SPEED™ PAYBACK

Кинопоиск HD

6 сезон

 Острые козырьки 6 сезон

Все сериалы

все сериалы на PB.wtf

RePack

FAR CRY 5
  
Magnet ссылка

Пляжная вечеринка Бри / Bree's Beach Party (Джим Малибу) [2008 г., All sex, Adult, Hardcore, DVDRip, Eng] pb.wtf

Пляжная вечеринка Бри через торрент pb.wtf

Размер: 1.36 GB | Добавлен: 4 года 3 мес. назад | Торрент скачан:367 раз
Смотреть онлайн Пляжная вечеринка Бри | Скачать    Ребята, помогите собрать деньги на оплату серверов!!!

17-05-2018 12:14 Пляжная вечеринка Бри Скачать торрент  

Пляжная вечеринка Бри / Bree's Beach PartyГод выпуска: 2008
Страна: США
Жанр: All sex, Adult, Hardcore
Продолжительность: 00:50:26 + 00:54:30
Перевод: Оригинал (английский)
Субтитры: отсутствуют

Режиссер: Джим Малибу
В ролях: Кенни Каролина, Джеймс Дин, Шэрон Кэйн, Джэми Ламор, Наоми Марсела, Джонни Нитро, Бри Олсон, Макс Спанктум, Алан Стэффорд, Эрик Суисс

Описание: Bree is hitting the beach with her boyfriend for a weekend of surfing, teeny-tiny bikinis and anything-goes parties!
Бри попадает на пляж со своим парнем на выходные серфинга, маленький-крошечные бикини и что-нибудь-идет вечеринки!

Качество: DVDRip
Формат: AVI
Видео кодек: XviD
Аудио кодек: MP3
Видео: 512x288 (16:9), 23.970 fps ~ 1700 Kbps
Аудио: MP3, 48 KHz, 2 ch ~ 128 Kb/s (английский)
Общее
Полное имя : Q:\TorF\Bree's Beach Party\dp-bbp-a.avi
Формат : AVI
Формат/Информация : Audio Video Interleave
Размер файла : 700 Мбайт
Продолжительность : 50 м.
Режим общего битрейта : Переменный
Общий поток : 1940 Кбит/сек
Программа кодирования : VirtualDubMod 1.5.10.2 (build 2540/release)
Библиотека кодирования : VirtualDubMod build 2540/release

Видео
Идентификатор : 0
Формат : MPEG-4 Visual
Профиль формата : Advanced [email protected]
Параметр BVOP формата : 2
Параметр QPel формата : Нет
Параметр GMC формата : Без точки перехода
Параметр матрицы формата : Default (MPEG)
Идентификатор кодека : XVID
Идентификатор кодека/Подсказка : XviD
Продолжительность : 50 м.
Битрейт : 1800 Кбит/сек
Ширина : 512 пикселей
Высота : 288 пикселей
Соотношение сторон : 16:9
Частота кадров : 29,970 кадров/сек
Цветовое пространство : YUV
Субдискретизация насыщенности : 4:2:0
Битовая глубина : 8 бит
Тип развёртки : Прогрессивная
Метод сжатия : С потерями
Бит/(Пиксели*Кадры) : 0.407
Размер потока : 649 Мбайт (93%)
Библиотека кодирования : XviD 1.2.0SMP (UTC 2006-01-08)

Аудио
Идентификатор : 1
Формат : MPEG Audio
Версия формата : Version 1
Профиль формата : Layer 3
Режим : Joint stereo
Расширение режима : MS Stereo
Идентификатор кодека : 55
Идентификатор кодека/Подсказка : MP3
Продолжительность : 50 м.
Вид битрейта : Переменный
Битрейт : 128 Кбит/сек
Каналы : 2 канала
Частота : 48,0 КГц
Метод сжатия : С потерями
Размер потока : 45,6 Мбайт (7%)
Выравнивание : Соединение по промежуткам
Продолжительность промежутка : 24 мс. (0,72 видеокадр)
Время предзагрузки промежутка : 389 мс.
Библиотека кодирования : LAME3.90.
Настройки программы : -m j -V 4 -q 2 -lowpass 17.6 --abr 128

pb.wtf



pack Скачать Пляжная вечеринка Бри через торрент https://pic.kartinco.top/images/11/fd22w.jpg Скачать, смотреть онлайн Пляжная вечеринка Бри бесплантно в хорошем качестве Описание: Bree is hitting the beach with her boyfriend for a weekend of surfing, teeny-tiny bikinis and anything-goes parties!Бри попадает ... 9 10 9
Info! Золотая раздача, скачанное не засчитывается.
Торрент: Зарегистрирован [2018-05-17 12:14] · скачан: 367 раз
Статус: √ проверено
Размер: 1.36 GB
Как cкачать? Как скачать Пляжная вечеринка Бри через торрент | UTorrent

28-11-2019 20:33  

Отключить вcю реклaмy на сайте

17-05-2018 16:59 Пляжная вечеринка Бри Скачать торрент  

Топик был перенесен из форума Порно-ролики в форум Порно фильмы с сюжетом


sheker187pb.wtf



pack
    Дорогой пользователь! Огромная просьба, поблагодарите релизера, оцените раздачу и оставьте свои комментарий, если Вы скачали Пляжная вечеринка Бри через торрент бесплатно!
    Комментировать посты могут только пользователи прошедшие не сложную регистрацию
    Показать сообщения:    

    Пляжная вечеринка Бри через торрент
    Скачать бесплатно Пляжная вечеринка Бри
    Пляжная вечеринка Бри скачать торрент
    Пляжная вечеринка Бри смотреть онлайн
    Cкачать фильм Пляжная вечеринка Бри бесплатно
    Пляжная вечеринка Бри скачать торрент в хорошем качестве
    Пляжная вечеринка Бри смотреть онлайн бесплатно в хорошем качестве


    Вы не можете начинать темы
    Вы не можете отвечать на сообщения
    Вы не можете редактировать свои сообщения
    Вы не можете удалять свои сообщения
    Вы не можете голосовать в опросах
    Вы не можете прикреплять файлы к сообщениям
    Вы можете скачивать файлы