Ссылка на приватное зеркало нашего сайта всего за 1$. Внимание количество ограничено!!!

2 сезон

iTunes

1 сезон

1

2 сезон

2 сезон

iTunes

1 сезон

RePack

30

Ultimate

ВАЖНО

ИГРА 18+

pack

RePack

MK11
pack

Забери бонус

RePack

jed

!!Акция!!

Alien_Rage

RePack

fifa19

RePack

Assassins Creed: Odyssey

RePack

NEED FOR SPEED™ PAYBACK

4 сезон

9 сезон

Бесстыжие 9 сезон

Все сериалы

все сериалы на PB.wtf

RePack

FAR CRY 5
  

Темные времена / Darkest Hour (Джо Райт) [2017, драма, военный, BD Remux 1080p] DUB [Лицензия] pb.wtf

Темные времена через торрент pb.wtf

Размер: 32.25 GB | Добавлен: 2 года 6 мес. назад | Торрент скачан:23 раза
Скачать  

17-05-2018 15:20 Темные времена Скачать торрент  

Темные времена / Darkest Hour
Год выпуска: 2017
Страна: Великобритания
Жанр: драма, военный
Продолжительность: 02:04:54
Перевод: Дублированный | Лицензия
Субтитры: Русские (forced, full), английские

Режиссер: Джо Райт

rating

В ролях:

Лили Джеймс, Гари Олдман, Бен Мендельсон, Кристин Скотт Томас, Стивен Диллэйн, Пип Торренс, Сэмюэл Уэст, Рональд Пикап, Ханна Стил, Эдриан Роулинз

Описание:

История о первом и решающем шаге Уинстона Черчилля на посту премьер-министра Великобритании, получившего Влacть при чрезвычайных обстоятельствах. Успехи нацистской армии взбудоражили британское сообщество, но вопреки давлению и страху других политиков Черчилль отказывается идти на соглашение с Гитлером.

Качество: BD Remux 1080p
Формат: MKV

Видео: MPEG-4 AVC, 31.4 Mбит/с, 1920x1080
Аудио#1: 48 kHz, AC3, 5.1, 640 Kbps | Дублированный | RUS |
Аудио#2: 48 kHz, TrueHD, 8 ch, 4218 Kbps | Оригинал | ENG |
Аудио#3: 48 kHz, AC3, 5.1, 640 Kbps | Оригинал | ENG |
скриншот   скриншот   скриншот   скриншот   скриншот  

General
Unique ID : 3107192316596243934629009988579407371 (0x2566C68B2722464663EF5FEBE2AB60B)
Complete name : C:\Video111\Darkest.Hour.2017.Lic.BDREMUX.1080p.ExKinoRay.mkv
Format : Matroska
Format version : Version 4 / Version 2
File size : 32.2 GiB
Duration : 2 h 4 min
Overall bit rate mode : Variable
Overall bit rate : 37.0 Mb/s
Movie name : Darkest Hour 2017 from ExKinoRay
Encoded date : UTC 2018-05-17 13:21:58
Writing application : mkvmerge v22.0.0 ('At The End Of The World') 64-bit
Writing library : libebml v1.3.5 + libmatroska v1.4.8

Video
ID : 1
Format : AVC
Format/Info : Advanced Video Codec
Format profile : High@L4.1
Format settings : CABAC / 4 Ref Frames
Format settings, CABAC : Yes
Format settings, ReFrames : 4 frames
Codec ID : V_MPEG4/ISO/AVC
Duration : 2 h 4 min
Bit rate mode : Variable
Bit rate : 31.4 Mb/s
Maximum bit rate : 34.0 Mb/s
Width : 1 920 pixels
Height : 1 080 pixels
Display aspect ratio : 16:9
Frame rate mode : Constant
Frame rate : 23.976 (24000/1001) FPS
Color space : YUV
Chroma subsampling : 4:2:0
Bit depth : 8 bits
Scan type : Progressive
Bits/(Pixel*Frame) : 0.631
Stream size : 27.4 GiB (85%)
Language : English
Default : Yes
Forced : No

Audio #1
ID : 2
Format : AC-3
Format/Info : Audio Coding 3
Codec ID : A_AC3
Duration : 2 h 4 min
Bit rate mode : Constant
Bit rate : 640 kb/s
Channel(s) : 6 channels
Channel positions : Front: L C R, Side: L R, LFE
Sampling rate : 48.0 kHz
Frame rate : 31.250 FPS (1536 SPF)
Bit depth : 16 bits
Compression mode : Lossy
Stream size : 571 MiB (2%)
Title : Dub [License]
Language : Russian
Service kind : Complete Main
Default : Yes
Forced : Yes

Audio #2
ID : 3
Format : TrueHD
Format profile : TrueHD+Atmos / TrueHD
Codec ID : A_TRUEHD
Duration : 2 h 4 min
Bit rate mode : Variable
Bit rate : 4 218 kb/s
Maximum bit rate : 6 609 kb/s
Channel(s) : Object Based / 8 channels
Channel positions : Object Based / Front: L C R, Side: L R, Back: L R, LFE
Sampling rate : / 48.0 kHz
Frame rate : 1 200.000 FPS (40 SPF)
Compression mode : Lossless
Stream size : 3.68 GiB (11%)
Title : Original
Language : English
Default : No
Forced : No

Audio #3
ID : 4
Format : AC-3
Format/Info : Audio Coding 3
Codec ID : A_AC3
Duration : 2 h 4 min
Bit rate mode : Constant
Bit rate : 640 kb/s
Channel(s) : 6 channels
Channel positions : Front: L C R, Side: L R, LFE
Sampling rate : 48.0 kHz
Frame rate : 31.250 FPS (1536 SPF)
Bit depth : 16 bits
Compression mode : Lossy
Stream size : 572 MiB (2%)
Language : English
Service kind : Complete Main
Default : No
Forced : No

Text #1
ID : 5
Format : UTF-8
Codec ID : S_TEXT/UTF8
Codec ID/Info : UTF-8 Plain Text
Duration : 1 h 58 min
Bit rate : 1 b/s
Count of elements : 19
Stream size : 1.64 KiB (0%)
Title : Forced
Language : Russian
Default : Yes
Forced : Yes

Text #2
ID : 6
Format : UTF-8
Codec ID : S_TEXT/UTF8
Codec ID/Info : UTF-8 Plain Text
Duration : 1 h 59 min
Bit rate : 105 b/s
Count of elements : 1680
Stream size : 91.6 KiB (0%)
Title : Full [focs]
Language : Russian
Default : No
Forced : No

Text #3
ID : 7
Format : UTF-8
Codec ID : S_TEXT/UTF8
Codec ID/Info : UTF-8 Plain Text
Duration : 1 h 59 min
Bit rate : 111 b/s
Count of elements : 1795
Stream size : 97.8 KiB (0%)
Title : Full [Leonid55]
Language : Russian
Default : No
Forced : No

Text #4
ID : 8
Format : UTF-8
Codec ID : S_TEXT/UTF8
Codec ID/Info : UTF-8 Plain Text
Duration : 1 h 57 min
Bit rate : 56 b/s
Count of elements : 1759
Stream size : 48.4 KiB (0%)
Title : Full
Language : English
Default : No
Forced : No

Text #5
ID : 9
Format : UTF-8
Codec ID : S_TEXT/UTF8
Codec ID/Info : UTF-8 Plain Text
Duration : 1 h 57 min
Bit rate : 58 b/s
Count of elements : 1805
Stream size : 49.8 KiB (0%)
Title : SDH
Language : English
Default : No
Forced : No

Text #6
ID : 10
Format : UTF-8
Codec ID : S_TEXT/UTF8
Codec ID/Info : UTF-8 Plain Text
Duration : 1 h 57 min
Bit rate : 68 b/s
Count of elements : 1814
Stream size : 58.4 KiB (0%)
Title : SDH Colored
Language : English
Default : No
Forced : No

Menu
00:00:00.000 : en:00:00:00.000
00:05:20.028 : en:00:05:20.028
00:10:17.951 : en:00:10:17.951
00:13:59.589 : en:00:13:59.589
00:22:33.060 : en:00:22:33.060
00:29:23.178 : en:00:29:23.178
00:37:09.519 : en:00:37:09.519
00:41:04.587 : en:00:41:04.587
00:48:26.904 : en:00:48:26.904
00:56:16.498 : en:00:56:16.498
01:02:38.463 : en:01:02:38.463
01:10:57.003 : en:01:10:57.003
01:18:41.467 : en:01:18:41.467
01:24:05.791 : en:01:24:05.791
01:30:25.629 : en:01:30:25.629
01:35:58.753 : en:01:35:58.753
01:39:33.968 : en:01:39:33.968
01:45:20.105 : en:01:45:20.105
01:52:55.227 : en:01:52:55.227
01:59:45.011 : en:01:59:45.011

pb.wtf



Скачать Темные времена через торрент http://img12.lostpic.net/2018/03/14/eeacb940c09ee9debf208a7990c7620f.jpg Скачать фильм Темные времена через торрент бесплантно в хорошем качестве Описание: История о первом и решающем шаге Уинстона Черчилля на посту премьер-министра Великобритании, получившего Влacть при чрезвычайных ... 6.5 10 4
Info! Золотая раздача, скачанное не засчитывается.
Торрент: Зарегистрирован [2018-05-17 15:20] · скачан: 23 раз
Статус: √ проверено
Размер: 32.25 GB
Как cкачать? Как скачать Темные времена через торрент | qTorrent

% Раздел Тема Автор DL S | L
Фильмы 2017 [DVDrip, WEB-DLRip, HDrip] (DUB, MVO) [ 1.46 GB ] Темные времена / Darkest Hour [2017 военный BDRip] - [] Twi7ter Скачать
2 | 0
Фильмы [HD 720p, 1080p] (Хороший звук DUB, MVO) [ 14.32 GB ] Темные времена / Darkest Hour [2017 военный BDRip 1080p] DUB [] bober100 Скачать
1 | 0
Ultra HD (UHD: 2K, 4K, 8K) — видео сверхвысокой чёткости [ 51.71 GB ] Темные времена / Darkest Hour [2017 военный UHD BDRemux 2160p] DUB +DUB [] bober100 Скачать
1 | 0
Фильмы 2017 [DVDrip, WEB-DLRip, HDrip] (DUB, MVO) [ 754 MB ] Темные времена / Darkest Hour [2017 военный биография история HDRip "BD EUR"] coc900 Скачать
1 | 0
Фильмы (Blu-ray, BD-Remux, HDDVD) [ 34.15 GB ] Темные времена / Darkest Hour [2017 военный Blu-ray CEE 1080p] DUB [] bober100 Скачать
1 | 0
Фильмы 2017 [DVDrip, WEB-DLRip, HDrip] (DUB, MVO) [ 2.44 GB ] Темные времена / Darkest Hour [2017 военный BDRip-AVC] DUB [] bober100 Скачать
1 | 0
Фильмы 2017 [DVDrip, WEB-DLRip, HDrip] (DUB, MVO) [ 2.18 GB ] Темные времена / Darkest Hour [2017 военный BDRip] DUB [ BD EUR] bober100 Скачать
1 | 0

28-11-2019 20:33  

Отключить всю рекламу на сайте

17-11-2018 13:42 Темные времена Скачать торрент  

5 баллооов прикол моменты есть и всё. не ДО крученный фильм по смысл такое впечатление ну нормо ..забыли дальше! как он убил солдат эт писец его секретарь сказала что её парень умер там.Черчилл понял что он эт сделал. мдд.а..pb.wtf



    Дорогой пользователь! Огромная просьба, поблагодарите релизера, оцените раздачу и оставьте свои комментарий, если Вы скачали Темные времена через торрент бесплатно! Внесите свою лепту в развитие PiratBit!
    Комментировать посты могут только пользователи прошедшие не сложную регистрацию
    Показать сообщения:    

    Темные времена через торрент
    Скачать бесплатно Темные времена
    Темные времена скачать торрент
    Темные времена смотреть онлайн
    Cкачать фильм Темные времена бесплатно
    Темные времена скачать торрент в хорошем качестве
    Темные времена смотреть онлайн бесплатно в хорошем качестве


    Вы не можете начинать темы
    Вы не можете отвечать на сообщения
    Вы не можете редактировать свои сообщения
    Вы не можете удалять свои сообщения
    Вы не можете голосовать в опросах
    Вы не можете прикреплять файлы к сообщениям
    Вы можете скачивать файлы