Ссылка на приватное зеркало нашего сайта всего за 1$. Внимание количество ограничено!!!

2 сезон

iTunes

1 сезон

1

iTunes

iTunes

iTunes

1 сезон

RePack

30

ИГРА 18+

pack

ВАЖНО

!!Акция!!

Alien_RageХит недели

RePack

MK11
pack

Забери бонус

RePack

jed

!!Акция!!

Alien_Rage

RePack

fifa19

RePack

Assassins Creed: Odyssey

RePack

NEED FOR SPEED™ PAYBACK

4 сезон

9 сезон

Бесстыжие 9 сезон

Все сериалы

все сериалы на PB.wtf

RePack

FAR CRY 5
  

Посольство / Сезон: 1 / Серии: 1-14 из 14 (Артём Аксененко) [2018, Детектив, драма, криминал, WEB-DL 1080p] pb.wtf

Посольство через торрент pb.wtf

Размер: 22.54 GB | Добавлен: 2 года 5 мес. назад | Торрент скачан:75 раз
Скачать  

17-05-2018 16:19 Посольство Скачать торрент  

ПосольствоГод выпуска: 2018
Страна: Россия
Жанр: Детектив, драма, криминал
Продолжительность: ~ 00:41:00
Перевод: Не требуется
Субтитры: отсутствуют

Режиссер: Артём Аксененко



В ролях:

Игорь Ливанов, Гела Месхи, Виталий Кищенко, Виктория Толстоганова, Юлия Ауг, Илья Ермолов, Сергей Комаров (II), Сергей Апрельский, Анна Андрусенко, Дмитрий Фрид, Виктория Соловьёва (II), Бесо Гатаев, Диана Пожарская, Мартиньш Вилсонс

Описание:

Одна из стран восточной Европы находится на пороге принятия «антирусского пакета», её активно подталкивают к этому власти США и Великобритании. Необходима провокация, чтобы все население Страны поддержало своё правительство в борьбе с Россией. История начинается с того, что в одном из столичных баров местные спецслужбы задерживают первого секретаря российского посольства Геннадия Веденеева (Гела Месхи) с дипломатическим кейсом, набитым наркотиками. Событие моментально приобретает масштаб главного международного скандала. Теперь команде российских дипломатов во главе с Алексеем Прокофьевым (Игорь Ливанов) предстоит не только оперативно выяснить, кто и для чего сплёл такую сеть интриг вокруг российского посольства, но и разобраться в назревающем международном конфликте.

Качество: WEB-DL 720p
Формат: MKV

Видео: MPEG-4 AVC, ~ 6000 Кбит/с, 1920x1080
Аудио: AC3, 2 ch, 192 Кбит/с
скриншот  скриншот  скриншот  

Общее
Уникальный идентификатор : 174906921990375215804002700657199418729 (0x8395D90CF8D3328FBAC4AF47B6780D69)
Полное имя : F:\Posolstvo.2018.WEB-DL.(1080p).Nikolspup\Posolstvo.(01-03.seriya).2018.WEB-DL.(1080p).Nikolspup.mkv
Формат : Matroska
Версия формата : Version 4 / Version 2
Размер файла : 4,92 Гбайт
Продолжительность : 1 ч. 54 м.
Режим общего битрейта : Постоянный
Общий поток : 6144 Кбит/сек
Дата кодирования : UTC 2018-05-07 20:47:50
Программа кодирования : mkvmerge v7.8.0 ('River Man') 32bit built on Mar 27 2015 16:18:02
Библиотека кодирования : libebml v1.3.1 + libmatroska v1.4.2

Видео
Идентификатор : 1
Формат : AVC
Формат/Информация : Advanced Video Codec
Профиль формата : High@L4.1
Параметр CABAC формата : Нет
Параметр RefFrames формата : 2 кадра
Идентификатор кодека : V_MPEG4/ISO/AVC
Продолжительность : 1 ч. 54 м.
Вид битрейта : Постоянный
Битрейт : 6000 Кбит/сек
Ширина : 1920 пикселей
Высота : 1080 пикселей
Соотношение сторон : 16:9
Режим частоты кадров : Постоянный
Частота кадров : 25,000 кадров/сек
Стандарт вещания : PAL
Цветовое пространство : YUV
Субдискретизация насыщенности : 4:2:0
Битовая глубина : 8 бит
Тип развёртки : Прогрессивная
Бит/(Пиксели*Кадры) : 0.116
Размер потока : 4,67 Гбайт (95%)
Default : Да
Forced : Нет
Цветовой диапазон : Limited
Основные цвета : BT.709
Характеристики трансфера : BT.709
Коэффициенты матрицы : BT.709

Аудио
Идентификатор : 2
Формат : AC-3
Формат/Информация : Audio Coding 3
Расширение режима : CM (complete main)
Параметр Endianness формата : Big
Идентификатор кодека : A_AC3
Продолжительность : 1 ч. 54 м.
Вид битрейта : Постоянный
Битрейт : 192 Кбит/сек
Каналы : 2 канала
Расположение каналов : Front: L R
Частота : 48,0 КГц
Частота кадров : 31,250 кадров/сек (1536 spf)
Метод сжатия : С потерями
Размер потока : 157 Мбайт (3%)
Язык : Russian
Default : Да
Forced : Нет

pb.wtf



Скачать Посольство через торрент http://img12.lostpic.net/2018/05/07/b399a6d37ff4c365638dbfd4ffdd3ac4.jpg Скачать фильм Посольство через торрент бесплантно в хорошем качестве Описание: Одна из стран восточной Европы находится на пороге принятия «антирусского пакета», её активно подталкивают к этому власти США и ... 8.2 10 5
Info! Золотая раздача, скачанное не засчитывается.
Торрент: Зарегистрирован [2018-05-17 16:19] · скачан: 75 раз
Статус: √ проверено
Размер: 22.54 GB
Как cкачать? Как скачать Посольство через торрент | qTorrent

% Раздел Тема Автор DL S | L
Наши сериалы [ 10.2 GB ] Посольство / Сезон: 1 / Серии: 1-14 из 14 [2018 WEB-DL 720p] bober100 Скачать
1 | 0
Наши сериалы [ 8.02 GB ] Посольство / Сезон: 1 / Серии: 1-14 из 14 [2018 WEB-DLRip-AVC] bober100 Скачать
1 | 0
Наши сериалы [ 6.38 GB ] Посольство / Сезон: 1 / Серии: 1-14 из 14 [2018 WEB-DLRip] bober100 Скачать
1 | 0
Наши сериалы [ 4.73 GB ] Посольство / Сезон: 1 / Серии: 1-14 из 14 [2018 WEBRip] bober100 Скачать
1 | 0

28-11-2019 20:33  

Отключить всю рекламу на сайте

    Дорогой пользователь! Огромная просьба, поблагодарите релизера, оцените раздачу и оставьте свои комментарий, если Вы скачали Посольство через торрент бесплатно! Внесите свою лепту в развитие PiratBit!
    Комментировать посты могут только пользователи прошедшие не сложную регистрацию
    Показать сообщения:    

    Посольство через торрент
    Скачать бесплатно Посольство
    Посольство скачать торрент
    Посольство смотреть онлайн
    Cкачать фильм Посольство бесплатно
    Посольство скачать торрент в хорошем качестве
    Посольство смотреть онлайн бесплатно в хорошем качестве


    Вы не можете начинать темы
    Вы не можете отвечать на сообщения
    Вы не можете редактировать свои сообщения
    Вы не можете удалять свои сообщения
    Вы не можете голосовать в опросах
    Вы не можете прикреплять файлы к сообщениям
    Вы можете скачивать файлы