Ссылка на приватное зеркало нашего сайта всего за 1$. Внимание количество ограничено!!!

2 сезон

iTunes

1 сезон

1

2 сезон

2 сезон

iTunes

1 сезон

RePack

30

Ultimate

ВАЖНО

ИГРА 18+

pack

RePack

MK11
pack

Забери бонус

RePack

jed

!!Акция!!

Alien_Rage

RePack

fifa19

RePack

Assassins Creed: Odyssey

RePack

NEED FOR SPEED™ PAYBACK

4 сезон

9 сезон

Бесстыжие 9 сезон

Все сериалы

все сериалы на PB.wtf

RePack

FAR CRY 5
  

Барри / Barry / Сезон: 1 / Серии: 1-8 из 8 (Билл Хейдер, Алек Берг, Мэгги Кэри) [2018, Комедия, WEB-DL 720p] MVO [NewStudio] pb.wtf

Барри через торрент pb.wtf

Размер: 5.51 GB | Добавлен: 2 года 6 мес. назад | Торрент скачан:43 раза
Скачать  

17-05-2018 17:43 Барри Скачать торрент  

Барри / Barry
Год выпуска: 2018
Страна: США
Жанр: Комедия
Продолжительность: ~00:30:36
Перевод: Профессиональный многоголосый |
Субтитры: Русские

Режиссер: Билл Хейдер, Алек Берг, Мэгги Кэри

rating

В ролях:

Билл Хейдер, Генри Уинклер, Стивен Рут, Сара Голдберг, Гленн Флешлер, Энтони Кэрриган, Даррел Бритт-Гибсон, Энди Кэри, Алехандро Ферт, Паула Ньюсом

Описание:

Барри — бывший морпех со Среднего Запада, а ныне никудышный киллер. Одинокий и неприкаянный, однажды он отправляется на заказ в Лос-Анджелес, где по воле случая оказывается на курсах актерского мастерства. Вдохновившись творческой атмосферой, Барри немедля решает стать актером и перезапустить свою жизнь.

Качество: WEB-DL 720p
Формат: MKV

Видео: MPEG-4 AVC, ~ 2000 Кбит/с, 1280x720
Аудио#1: Русский (AC3, 6 ch, 384 Кбит/с)
Аудио#2: английский (EAC3, 6 ch, 640 Кбит/с)


скриншот   скриншот  скриншот  

Общее
Уникальный идентификатор : 225568364060452279382985129807258279876 (0xA9B2E2FDCA8D44F4A083DB3A26DF5FC4)
Полное имя : F:\Barry. (Season 1) 720\Barry.s01e01.WEBDL.720p.NewStudio.TV.mkv
Формат : Matroska
Версия формата : Version 4 / Version 2
Размер файла : 656 Мбайт
Продолжительность : 30 м. 58 с.
Режим общего битрейта : Переменный
Общий поток : 2961 Кбит/сек
Дата кодирования : UTC 2018-03-27 16:35:17
Программа кодирования : mkvmerge v6.7.0 ('Back to the Ground') 32bit built on Jan 8 2014 15:03:17
Библиотека кодирования : libebml v1.3.0 + libmatroska v1.4.1

Видео
Идентификатор : 1
Формат : AVC
Формат/Информация : Advanced Video Codec
Профиль формата : High@L3.1
Параметр CABAC формата : Да
Параметр RefFrames формата : 5 кадров
Идентификатор кодека : V_MPEG4/ISO/AVC
Продолжительность : 30 м. 58 с.
Вид битрейта : Переменный
Битрейт : 1878 Кбит/сек
Максимальный битрейт : 4500 Кбит/сек
Ширина : 1280 пикселей
Высота : 720 пикселей
Соотношение сторон : 16:9
Режим частоты кадров : Постоянный
Частота кадров : 23,976 (24000/1001) кадра/сек
Цветовое пространство : YUV
Субдискретизация насыщенности : 4:2:0
Битовая глубина : 8 бит
Тип развёртки : Прогрессивная
Бит/(Пиксели*Кадры) : 0.085
Размер потока : 416 Мбайт (63%)
Default : Да
Forced : Нет
Цветовой диапазон : Limited
Основные цвета : BT.709
Характеристики трансфера : BT.709
Коэффициенты матрицы : BT.709

Аудио #1
Идентификатор : 2
Формат : AC-3
Формат/Информация : Audio Coding 3
Расширение режима : CM (complete main)
Параметр Endianness формата : Big
Идентификатор кодека : A_AC3
Продолжительность : 30 м. 58 с.
Вид битрейта : Постоянный
Битрейт : 384 Кбит/сек
Каналы : 6 каналов
Расположение каналов : Front: L C R, Side: L R, LFE
Частота : 48,0 КГц
Частота кадров : 31,250 кадров/сек (1536 spf)
Метод сжатия : С потерями
Размер потока : 85,1 Мбайт (13%)
Язык : Russian
Default : Да
Forced : Да

Аудио #2
Идентификатор : 3
Формат : E-AC-3
Формат/Информация : Audio Coding 3
Параметр Endianness формата : Big
Идентификатор кодека : A_EAC3
Продолжительность : 30 м. 58 с.
Вид битрейта : Постоянный
Битрейт : 640 Кбит/сек
Каналы : 6 каналов
Расположение каналов : Front: L C R, Side: L R, LFE
Частота : 48,0 КГц
Частота кадров : 187,500 кадров/сек (256 spf)
Метод сжатия : С потерями
Задержка видео : 7 мс.
Размер потока : 142 Мбайт (22%)
Язык : English
Default : Нет
Forced : Нет

Текст
Идентификатор : 4
Формат : ASS
Идентификатор кодека : S_TEXT/ASS
Идентификатор кодека/Информация : Advanced Sub Station Alpha
Метод сжатия : Без потерь
Язык : Russian
Default : Да
Forced : Да

pb.wtf



Скачать Барри через торрент http://pic1.kartinco.top/images/11/3457y.jpg Скачать фильм Барри через торрент бесплантно в хорошем качестве Описание: Барри — бывший морпех со Среднего Запада, а ныне никудышный киллер. Одинокий и неприкаянный, однажды он отправляется на заказ в ... 7.8 10 4
Info! Золотая раздача, скачанное не засчитывается.
Торрент: Зарегистрирован [2018-05-17 17:43] · скачан: 43 раз
Статус: √ проверено
Размер: 5.51 GB
Как cкачать? Как скачать Барри через торрент | qTorrent

% Раздел Тема Автор DL S | L
Зарубежные сериалы [ 17.09 GB ] Барри / Barry / Сезон: 2 / Серии: 1-8 из 8 [2019 WEB-DL 1080p] MVO [TVShows] bober100 Скачать
1 | 0
Зарубежные сериалы [ 7.43 GB ] Барри / Barry / Сезон: 2 / Серии: 1-8 из 8 [2019 WEB-DL 720p] [MVO] killermax2013 Скачать
1 | 0
Зарубежные сериалы [ 16.86 GB ] Барри / Barry / Сезон: 2 / Серии: 1-8 из 8 [2019 WEB-DL 1080p] [MVO] killermax2013 Скачать
1 | 0
Зарубежные сериалы [ 4.72 GB ] Барри / Barry / Сезон: 1 / Серии: 1-8 из 8 [2018 WEB-DLRip] MVO [NewStudio] bober100 Скачать
1 | 0
Зарубежные сериалы [ 5.06 GB ] Барри / Barry / Сезон: 1 / Серии: 1-8 из 8 [2018 WEB-DL 720p] MVO [Jaskier] bober100 Скачать
1 | 0
Зарубежные сериалы [ 3.04 GB ] Барри / Barry / Сезон: 1 / Серии: 1-8 из 8 [2018 WEB-DLRip] MVO [Jaskier] bober100 Скачать
1 | 0
Зарубежные сериалы [ 5.51 GB ] Барри / Barry / Сезон: 1 / Серии: 1-8 из 8 [2018 WEB-DL 720p] [MVO] killermax2013 Скачать
1 | 0

28-11-2019 20:33  

Отключить всю рекламу на сайте

    Дорогой пользователь! Огромная просьба, поблагодарите релизера, оцените раздачу и оставьте свои комментарий, если Вы скачали Барри через торрент бесплатно! Внесите свою лепту в развитие PiratBit!
    Комментировать посты могут только пользователи прошедшие не сложную регистрацию
    Показать сообщения:    

    Барри через торрент
    Скачать бесплатно Барри
    Барри скачать торрент
    Барри смотреть онлайн
    Cкачать фильм Барри бесплатно
    Барри скачать торрент в хорошем качестве
    Барри смотреть онлайн бесплатно в хорошем качестве


    Вы не можете начинать темы
    Вы не можете отвечать на сообщения
    Вы не можете редактировать свои сообщения
    Вы не можете удалять свои сообщения
    Вы не можете голосовать в опросах
    Вы не можете прикреплять файлы к сообщениям
    Вы можете скачивать файлы