Всегда рабочее зеркало без VPN и Proxy просто перед .vidak.icu напиши любое слово или цифру, Пример http://2n7t.vidak.icu

Лицензия

MVO

1 сезон

1

1 сезон

iTunes

1 сезон

13

1 сезон

Deluxe

pack

Рекомендуем

Repack

30

ВАЖНО

RePack

MK11

RePack

jed

RePack

fifa19

RePack

RDR2

RePack

NEED FOR SPEED™ PAYBACK

Кинопоиск HD

6 сезон

 Острые козырьки 6 сезон

Все сериалы

все сериалы на PB.wtf

RePack

FAR CRY 5
  
Magnet ссылка

Бегущий в лабиринте: Лекарство от смерти / Maze Runner: The Death Cure (Уэс Болл) [2018, фантастика, боевик, триллер, UHD BDRip 2160p] DUB (rus, ukr) + MVO [HDRezka] pb.wtf

Бегущий в лабиринте: Лекарство от смерти через торрент pb.wtf

Размер: 28.56 GB | Добавлен: 4 года 3 мес. назад | Торрент скачан:75 раз
Смотреть онлайн Бегущий в лабиринте: Лекарство от смерти | Скачать    Ребята, помогите собрать деньги на оплату серверов!!!

18-05-2018 03:58 Бегущий в лабиринте: Лекарство от смерти Скачать торрент  

Бегущий в лабиринте: Лекарство от смерти / Maze Runner: The Death Cure«Из каждого лабиринта всегда есть выход»
Год выпуска: 2018
Страна: США
Жанр: фантастика, боевик, триллер
Продолжительность: 02:23:52
Перевод: Дублированный, профессиональный многоголосый
Субтитры: Русские, английские, украинские
Режиссер: Уэс Болл
В ролях:

Дилан О’Брайен (Thomas), Ли Ги-хон (Minho), Кая Скоделарио (Teresa), Томас Сэнгстер (Newt), Декстер Дарден (Frypan), Уилл Поултер (Gally), Джейкоб Лофленд (Aris), Роза Салазар (Brenda), Джанкарло Эспозито (Jorge), Патришия Кларксон (Ava Paige), Эйдан Гиллен (Janson), Барри Пеппер (Vince)
Описание:
Томас возглавляет отряд выживших глейдеров, чтобы выполнить последнюю и самую опасную миссию. Ради спасения своих друзей они должны проникнуть в легендарный Последний город, смертоносный лабиринт, контролируемый ПОРОКом. Каждый, кто выживет там, наконец-то получит ответы на все вопросы, которые мучили глейдеров с момента попадания в лабиринт.
Рейтинг:

MPAA: PG-13 - Детям до 13 лет просмотр не желателен
Качество: UHD BDRip 2160p
Формат: MKV
Видео: HEVC, 18200 Кбит/с, 3840x1604, 23.976 Кадр/с
Аудио #1: DTS, 48.0 kHz, 6 ch, 768 kb/s, CBR (Русский) | Дублированный, лицензия |
Аудио #2: AC-3, 48.0 kHz, 6 ch, 448 kb/s, CBR (Русский) | Дублированный, лицензия |
Аудио #3: AC-3, 48.0 kHz, 2 ch, 192 kb/s, CBR (Русский) | Профессиональный многоголосый, HDRezka |
Аудио #4: AC-3, 48.0 kHz, 6 ch, 448 kb/s, CBR (Украинский) |Дублированный, лицензия |
Аудио #5: TrueHD TrueHD+Atmos / TrueHD, / 48.0 kHz, Object Based / 8 ch, 7631 kb/s, VBR (English) | Original |
Аудио #6: AC-3, 48.0 kHz, 6 ch, 640 kb/s, CBR (English) | Original |
Навигация по главам: есть
Общее
Уникальный идентификатор : 241937573349180309349983995261602532988 (0xB6037B51E84808198BB61253C2F08E7C)
Полное имя : H:\Maze.Runner.The.Death.Cure.2018.2160p.BluRay.x265.10bit.HDR.Master5.mkv
Формат : Matroska
Версия формата : Version 4 / Version 2
Размер файла : 28,6 Гбайт
Продолжительность : 2 ч. 23 м.
Режим общего битрейта : Переменный
Общий поток : 28,4 Мбит/сек
Название фильма : Maze.Runner.The.Death.Cure.2018.2160p.BluRay.x265.10bit.HDR.Master5
Дата кодирования : UTC 2018-04-29 16:37:54
Программа кодирования : mkvmerge v8.1.0 ('Psychedelic Postcard') 32bit
Библиотека кодирования : libebml v1.3.1 + libmatroska v1.4.2

Видео
Идентификатор : 1
Формат : HEVC
Формат/Информация : High Efficiency Video Coding
Профиль формата : Main [email protected]@High
Идентификатор кодека : V_MPEGH/ISO/HEVC
Продолжительность : 2 ч. 23 м.
Битрейт : 18,2 Мбит/сек
Ширина : 3840 пикселей
Высота : 1604 пикселя
Соотношение сторон : 2,40:1
Режим частоты кадров : Постоянный
Частота кадров : 23,976 (24000/1001) кадра/сек
Цветовое пространство : YUV
Субдискретизация насыщенности : 4:2:0 (Type 2)
Битовая глубина : 10 бит
Бит/(Пиксели*Кадры) : 0.123
Размер потока : 18,3 Гбайт (64%)
Заголовок : Maze.Runner.The.Death.Cure.2018.2160p.BluRay.x265.10bit.HDR.Master5
Библиотека кодирования : x265 2.7+3-9086c8a3e76d:[Windows][GCC 8.0.1][64 bit] 10bit
Настройки программы : cpuid=1173503 / frame-threads=4 / numa-pools=16 / wpp / no-pmode / no-pme / no-psnr / no-ssim / log-level=2 / input-csp=1 / input-res=3840x1604 / interlace=0 / total-frames=206976 / level-idc=51 / high-tier=1 / uhd-bd=0 / ref=4 / no-allow-non-conformance / repeat-headers / annexb / aud / hrd / info / hash=0 / no-temporal-layers / no-open-gop / min-keyint=24 / keyint=240 / gop-lookahead=0 / bframes=4 / b-adapt=2 / b-pyramid / bframe-bias=0 / rc-lookahead=25 / lookahead-slices=4 / scenecut=40 / radl=0 / no-intra-refresh / ctu=64 / min-cu-size=8 / rect / no-amp / max-tu-size=32 / tu-inter-depth=1 / tu-intra-depth=1 / limit-tu=0 / rdoq-level=2 / dynamic-rd=0.00 / no-ssim-rd / signhide / no-tskip / nr-intra=0 / nr-inter=0 / no-constrained-intra / no-strong-intra-smoothing / max-merge=3 / limit-refs=3 / limit-modes / me=3 / subme=3 / merange=57 / temporal-mvp / weightp / no-weightb / no-analyze-src-pics / deblock=-3:-3 / no-sao / no-sao-non-deblock / rd=4 / no-early-skip / rskip / no-fast-intra / no-tskip-fast / no-cu-lossless / no-b-intra / no-splitrd-skip / rdpenalty=0 / psy-rd=2.00 / psy-rdoq=1.00 / no-rd-refine / no-lossless / cbqpoffs=0 / crqpoffs=0 / rc=crf / crf=17.0 / qcomp=0.60 / qpstep=4 / stats-write=0 / stats-read=0 / vbv-maxrate=160000 / vbv-bufsize=160000 / vbv-init=0.9 / crf-max=0.0 / crf-min=0.0 / ipratio=1.40 / pbratio=1.30 / aq-mode=1 / aq-strength=1.00 / cutree / zone-count=0 / no-strict-cbr / qg-size=32 / no-rc-grain / qpmax=69 / qpmin=0 / no-const-vbv / sar=1 / overscan=0 / videoformat=5 / range=0 / colorprim=9 / transfer=16 / colormatrix=9 / chromaloc=1 / chromaloc-top=2 / chromaloc-bottom=2 / display-window=0 / master-display=G(13250,34500)B(7500,3000)R(34000,16000)WP(15635,16450)L(10000000,50) / max-cll=0,0 / min-luma=0 / max-luma=1023 / log2-max-poc-lsb=8 / vui-timing-info / vui-hrd-info / slices=1 / no-opt-qp-pps / no-opt-ref-list-length-pps / no-multi-pass-opt-rps / scenecut-bias=0.05 / no-opt-cu-delta-qp / no-aq-motion / hdr / hdr-opt / no-dhdr10-opt / analysis-reuse-level=5 / scale-factor=0 / refine-intra=0 / refine-inter=0 / refine-mv=0 / no-limit-sao / ctu-info=0 / no-lowpass-dct / refine-mv-type=0 / copy-pic=1
Default : Да
Forced : Нет
Цветовой диапазон : Limited
Основные цвета : BT.2020
Характеристики трансфера : SMPTE ST 2084
Коэффициенты матрицы : BT.2020 non-constant
MasteringDisplay_ColorPrimaries : R: x=0.680000 y=0.320000, G: x=0.265000 y=0.690000, B: x=0.150000 y=0.060000, White point: x=0.312700 y=0.329000
MasteringDisplay_Luminance : min: 0.0050 cd/m2, max: 1000.0000 cd/m2

Аудио #1
Идентификатор : 2
Формат : DTS
Формат/Информация : Digital Theater Systems
Режим : 16
Параметр Endianness формата : Big
Идентификатор кодека : A_DTS
Продолжительность : 2 ч. 23 м.
Вид битрейта : Постоянный
Битрейт : 768 Кбит/сек
Каналы : 6 каналов
Расположение каналов : Front: L C R, Side: L R, LFE
Частота : 48,0 КГц
Частота кадров : 93,750 кадра/сек (512 spf)
Битовая глубина : 24 бит
Метод сжатия : С потерями
Размер потока : 790 Мбайт (3%)
Заголовок : Dub License
Язык : Russian
Default : Да
Forced : Да

Аудио #2
Идентификатор : 3
Формат : AC-3
Формат/Информация : Audio Coding 3
Расширение режима : CM (complete main)
Параметр Endianness формата : Big
Идентификатор кодека : A_AC3
Продолжительность : 2 ч. 23 м.
Вид битрейта : Постоянный
Битрейт : 448 Кбит/сек
Каналы : 6 каналов
Расположение каналов : Front: L C R, Side: L R, LFE
Частота : 48,0 КГц
Частота кадров : 31,250 кадров/сек (1536 spf)
Метод сжатия : С потерями
Размер потока : 461 Мбайт (2%)
Заголовок : Dub License
Язык : Russian
Default : Нет
Forced : Нет

Аудио #3
Идентификатор : 4
Формат : AC-3
Формат/Информация : Audio Coding 3
Расширение режима : CM (complete main)
Параметр Endianness формата : Big
Идентификатор кодека : A_AC3
Продолжительность : 2 ч. 23 м.
Вид битрейта : Постоянный
Битрейт : 192 Кбит/сек
Каналы : 2 канала
Расположение каналов : Front: L R
Частота : 48,0 КГц
Частота кадров : 31,250 кадров/сек (1536 spf)
Метод сжатия : С потерями
Размер потока : 198 Мбайт (1%)
Заголовок : MVO HDRezka
Язык : Russian
Default : Нет
Forced : Нет

Аудио #4
Идентификатор : 5
Формат : AC-3
Формат/Информация : Audio Coding 3
Расширение режима : CM (complete main)
Параметр Endianness формата : Big
Идентификатор кодека : A_AC3
Продолжительность : 2 ч. 23 м.
Вид битрейта : Постоянный
Битрейт : 448 Кбит/сек
Каналы : 6 каналов
Расположение каналов : Front: L C R, Side: L R, LFE
Частота : 48,0 КГц
Частота кадров : 31,250 кадров/сек (1536 spf)
Метод сжатия : С потерями
Размер потока : 461 Мбайт (2%)
Заголовок : Dub License
Язык : Uighur
Default : Нет
Forced : Нет

Аудио #5
Идентификатор : 6
Формат : Atmos / TrueHD
Идентификатор кодека : A_TRUEHD
Продолжительность : 2 ч. 23 м.
Вид битрейта : Переменный
Битрейт : 7631 Кбит/сек
Максимальный битрейт : 12,1 Мбит/сек
Каналы : Object Based / 8 каналов
Расположение каналов : Object Based / Front: L C R, Side: L R, Back: L R, LFE
Частота : / 48,0 КГц
Частота кадров : 1200,000 кадров/сек (40 spf)
Метод сжатия : Без потерь
Размер потока : 7,67 Гбайт (27%)
Заголовок : Atmos 7.1
Язык : English
Default : Нет
Forced : Нет

Аудио #6
Идентификатор : 7
Формат : AC-3
Формат/Информация : Audio Coding 3
Расширение режима : CM (complete main)
Параметр Endianness формата : Big
Идентификатор кодека : A_AC3
Продолжительность : 2 ч. 23 м.
Вид битрейта : Постоянный
Битрейт : 640 Кбит/сек
Каналы : 6 каналов
Расположение каналов : Front: L C R, Side: L R, LFE
Частота : 48,0 КГц
Частота кадров : 31,250 кадров/сек (1536 spf)
Метод сжатия : С потерями
Размер потока : 659 Мбайт (2%)
Заголовок : AC-3 5.1
Язык : English
Default : Нет
Forced : Нет

Текст #1
Идентификатор : 8
Формат : UTF-8
Идентификатор кодека : S_TEXT/UTF8
Идентификатор кодека/Информация : UTF-8 Plain Text
Продолжительность : 2 ч. 22 м.
Битрейт : 55 бит/сек
Count of elements : 1389
Размер потока : 57,6 Кбайт (0%)
Заголовок : Full
Язык : Russian
Default : Нет
Forced : Нет

Текст #2
Идентификатор : 9
Формат : UTF-8
Идентификатор кодека : S_TEXT/UTF8
Идентификатор кодека/Информация : UTF-8 Plain Text
Продолжительность : 2 ч. 20 м.
Битрейт : 49 бит/сек
Count of elements : 1397
Размер потока : 50,4 Кбайт (0%)
Заголовок : Full
Язык : Ukrainian
Default : Нет
Forced : Нет

Текст #3
Идентификатор : 10
Формат : UTF-8
Идентификатор кодека : S_TEXT/UTF8
Идентификатор кодека/Информация : UTF-8 Plain Text
Продолжительность : 2 ч. 15 м.
Битрейт : 35 бит/сек
Count of elements : 1475
Размер потока : 35,5 Кбайт (0%)
Заголовок : Full
Язык : English
Default : Нет
Forced : Нет

Текст #4
Идентификатор : 11
Формат : UTF-8
Идентификатор кодека : S_TEXT/UTF8
Идентификатор кодека/Информация : UTF-8 Plain Text
Продолжительность : 2 ч. 15 м.
Битрейт : 40 бит/сек
Count of elements : 1688
Размер потока : 40,6 Кбайт (0%)
Заголовок : SDH
Язык : English
Default : Нет
Forced : Нет

Меню
00:00:00.000 : en:00:00:00.000
00:11:31.608 : en:00:11:31.608
00:15:59.750 : en:00:15:59.750
00:20:08.457 : en:00:20:08.457
00:24:34.890 : en:00:24:34.890
00:30:40.547 : en:00:30:40.547
00:36:47.330 : en:00:36:47.330
00:43:15.343 : en:00:43:15.343
00:48:06.342 : en:00:48:06.342
00:55:17.397 : en:00:55:17.397
01:02:42.926 : en:01:02:42.926
01:07:14.489 : en:01:07:14.489
01:11:56.062 : en:01:11:56.062
01:15:48.169 : en:01:15:48.169
01:23:20.329 : en:01:23:20.329
01:29:45.422 : en:01:29:45.422
01:34:00.593 : en:01:34:00.593
01:40:09.795 : en:01:40:09.795
01:43:33.082 : en:01:43:33.082
01:53:38.645 : en:01:53:38.645
01:59:43.885 : en:01:59:43.885
02:04:49.399 : en:02:04:49.399
02:10:03.087 : en:02:10:03.087
02:18:03.817 : en:02:18:03.817
pb.wtf



Скачать Бегущий в лабиринте: Лекарство от смерти через торрент https://a.radikal.ru/a13/1805/bb/1d3d3f7cdbeb.jpg Скачать, смотреть онлайн Бегущий в лабиринте: Лекарство от смерти бесплантно в хорошем качестве Описание: Томас возглавляет отряд выживших глейдеров, чтобы выполнить последнюю и самую опасную миссию. Ради спасения своих друзей они ... 10 10 1
Торрент: Зарегистрирован [2018-05-18 03:58] · скачан: 75 раз
Статус: √ проверено
Размер: 28.56 GB
Как cкачать? Как скачать Бегущий в лабиринте: Лекарство от смерти через торрент | UTorrent

% Раздел Тема Автор DL S | L
Фильмы [HD 720p, 1080p] (Хороший звук DUB, MVO) [ 7.02 GB ] Бегущий в лабиринте: Лекарство от смерти / Maze Runner: The Death Cure [2018 BDRip 720p] MVO [HDRezka Studio] +DUB [] bober100 Скачать
1 | 0
Ultra HD (UHD: 2K, 4K, 8K) — видео сверхвысокой чёткости [ 57.8 GB ] Бегущий в лабиринте: Лекарство от смерти / Maze Runner: The Death Cure [2018 UHD BDRemux 2160p] MVO [HDRezka Studio] +DUB [] bober100 Скачать
1 | 0
Фильмы (Blu-ray, BD-Remux, HDDVD) [ 28.08 GB ] Бегущий в лабиринте: Лекарство от смерти / Maze Runner: The Death Cure [2018 BD Remux 1080p] MVO [HDRezka Studio] +DUB [] bober100 Скачать
1 | 0
Фильмы [HD 720p, 1080p] (Хороший звук DUB, MVO) [ 11.42 GB ] Бегущий в лабиринте: Лекарство от смерти / Maze Runner: The Death Cure [2018 BDRip 1080p] MVO [HDRezka Studio] +DUB [] bober100 Скачать
1 | 0

28-11-2019 20:33  

Отключить вcю реклaмy на сайте

    Дорогой пользователь! Огромная просьба, поблагодарите релизера, оцените раздачу и оставьте свои комментарий, если Вы скачали Бегущий в лабиринте: Лекарство от смерти через торрент бесплатно!
    Комментировать посты могут только пользователи прошедшие не сложную регистрацию
    Показать сообщения:    

    Бегущий в лабиринте: Лекарство от смерти через торрент
    Скачать бесплатно Бегущий в лабиринте: Лекарство от смерти
    Бегущий в лабиринте: Лекарство от смерти скачать торрент
    Бегущий в лабиринте: Лекарство от смерти смотреть онлайн
    Cкачать фильм Бегущий в лабиринте: Лекарство от смерти бесплатно
    Бегущий в лабиринте: Лекарство от смерти скачать торрент в хорошем качестве
    Бегущий в лабиринте: Лекарство от смерти смотреть онлайн бесплатно в хорошем качестве


    Вы не можете начинать темы
    Вы не можете отвечать на сообщения
    Вы не можете редактировать свои сообщения
    Вы не можете удалять свои сообщения
    Вы не можете голосовать в опросах
    Вы не можете прикреплять файлы к сообщениям
    Вы можете скачивать файлы