новый адрес
Ссылка на приватное зеркало всего за 1$. Внимание количество ограничено!!!

iTunes

1+1

iTunes

мы

WEB-DL

1

iTunes

Чернобыль

iTunes

Ральф против интернета

Лицензия

ПШазам

Лицензия

Оно 2

Лицензия

30
pack

Вам бонус

ВАЖНО

!!Акция!!

Alien_RageХит недели

RePack

Resident Evil 21

ИГРА 18+

pack

RePack

jed

!!Акция!!

Alien_Rage

RePack

fifa19

RePack

Assassins Creed: Odyssey

RePack

NEED FOR SPEED™ PAYBACK

3 сезон

9 сезон

Бесстыжие 9 сезон

Все сериалы

все сериалы на PB.wtf

RePack

FAR CRY 5
Ребята, катастрофически не хватает 1900р. для оплаты серверов за Октябрь (всвязи с блокировками трафик упал в 3 раза), 1-2р., выручайте.
  

Чужая родня / Monsieur Batignole (Жерар Жюньо) [2002, драма, комедия, BDRip 720p by msltel] MVO pb.wtf

Чужая родня через торрент pb.wtf

Размер: 3.64 GB | Добавлен: 1 год 6 мес. назад | Торрент скачан:30 раз
Скачать  

18-05-2018 05:16 Чужая родня Скачать торрент  

Название: Чужая родня
Оригинальное название: Monsieur Batignole
Год выпуска: 2002
Страна: Франция
Жанр: драма, комедия
Продолжительность: 01:39:41
Перевод: профессиональный многоголосый

Режиссер: Жерар Жюньо
В ролях: Жюль Ситрук, Жерар Жюньо, Мишель Гарсиа, Жан-Поль Рув, Алексия Порталь, Вайолетт Бланкер, Дафна Бевир, Гётц Бюргер, Элизабет Коммелен, Юбер Сен-Макари

О фильме: Лето 1942 года. Франция оккупирована фашистской Германией. Но хозяина мясной лавки Эдмона Ботиньоля присутствие немецких солдат не слишком тяготит, он больше озабочен тем, что по ночам кто-то крадёт из его подвала окорока и сосиски. Его подозрения падают на соседского мальчишку Саймона из еврейской семьи. Когда нацисты начинают депортацию евреев, Ботиньоль не испытывает к ним особого сочувствия. Но однажды на пороге его дома появляется Саймон, сбежавший от немцев. С этого момента флегматичный толстяк Ботиньоль начинает проявлять прямо-таки чудеса отваги и находчивости, чтобы спасти осиротевшего мальчика. Им предстоит совершить путешествие до швейцарской границы, полное опасных и порой забавных приключений, во время которого их взаимоотношения будут меняться от взаимной неприязни до крепкой и искренней дружбы...



Качество: BDRip 720p
Формат: MKV
Видео: MPEG-4 AVC, 4590 Kбит/с, 1280x548, 25 кадр/с
Аудио 1: русский, AC3, 192 kbps, 2 ch, 48 kHz [закадровый многоголосый]
Аудио 2: французский, AC3, 448 kbps, 6 ch, 48 kHz [оригинал]
Главы/чаптеры
Общее
Уникальный идентификатор : 188531010077637618521094487098219923429 (0x8DD5C0745A6D51A680F5710EE30587E5)
Полное имя : D:\Video\Чужая родня.2002.BDRip.720p by msltel.mkv
Формат : Matroska
Версия формата : Version 4 / Version 2
Размер файла : 3,64 Гбайт
Продолжительность : 1 ч. 39 м.
Общий поток : 5232 Кбит/сек
Название фильма : Rip by msltel
Дата кодирования : UTC 2018-05-18 04:00:51
Программа кодирования : mkvmerge v8.2.0 ('World of Adventure') 64bit
Библиотека кодирования : libebml v1.3.1 + libmatroska v1.4.2

Видео
Идентификатор : 1
Формат : AVC
Формат/Информация : Advanced Video Codec
Профиль формата : High@L4.1
Настройки формата : CABAC / 9 Ref Frames
Параметр CABAC формата : Да
Параметр RefFrames формата : 9 кадров
Идентификатор кодека : V_MPEG4/ISO/AVC
Продолжительность : 1 ч. 39 м.
Битрейт : 4590 Кбит/сек
Ширина : 1280 пикселей
Высота : 548 пикселей
Соотношение сторон : 2,35:1
Режим частоты кадров : Постоянный
Частота кадров : 25,000 кадров/сек
Цветовое пространство : YUV
Субдискретизация насыщенности : 4:2:0
Битовая глубина : 8 бит
Тип развёртки : Прогрессивная
Бит/(Пиксели*Кадры) : 0.262
Размер потока : 3,20 Гбайт (88%)
Библиотека кодирования : x264 core 146 r2538 121396c
Настройки программы : cabac=1 / ref=9 / deblock=1:-3:-2 / analyse=0x3:0x113 / me=umh / subme=11 / psy=1 / psy_rd=1.00:0.15 / mixed_ref=1 / me_range=32 / chroma_me=1 / trellis=2 / 8x8dct=1 / cqm=0 / deadzone=21,11 / fast_pskip=0 / chroma_qp_offset=-3 / threads=6 / lookahead_threads=1 / sliced_threads=0 / nr=0 / decimate=1 / interlaced=0 / bluray_compat=0 / constrained_intra=0 / bframes=7 / b_pyramid=2 / b_adapt=2 / b_bias=0 / direct=1 / weightb=1 / open_gop=0 / weightp=2 / keyint=240 / keyint_min=24 / scenecut=40 / intra_refresh=0 / rc_lookahead=40 / rc=crf / mbtree=0 / crf=18.5 / qcomp=0.60 / qpmin=0 / qpmax=69 / qpstep=4 / vbv_maxrate=62500 / vbv_bufsize=78125 / crf_max=0.0 / nal_hrd=none / filler=0 / ip_ratio=1.40 / pb_ratio=1.30 / aq=1:1.00
Язык : French
Default : Да
Forced : Нет

Аудио #1
Идентификатор : 2
Формат : AC-3
Формат/Информация : Audio Coding 3
Идентификатор кодека : A_AC3
Продолжительность : 1 ч. 39 м.
Вид битрейта : Постоянный
Битрейт : 192 Кбит/сек
Каналы : 2 канала
Расположение каналов : Front: L R
Частота : 48,0 КГц
Частота кадров : 31,250 кадров/сек (1536 SPF)
Битовая глубина : 16 бит
Метод сжатия : С потерями
Размер потока : 137 Мбайт (4%)
Заголовок : MVO
Язык : Russian
ServiceKind/String : Complete Main
Default : Да
Forced : Нет

Аудио #2
Идентификатор : 3
Формат : AC-3
Формат/Информация : Audio Coding 3
Идентификатор кодека : A_AC3
Продолжительность : 1 ч. 39 м.
Вид битрейта : Постоянный
Битрейт : 448 Кбит/сек
Каналы : 6 каналов
Расположение каналов : Front: L C R, Side: L R, LFE
Частота : 48,0 КГц
Частота кадров : 31,250 кадров/сек (1536 SPF)
Битовая глубина : 16 бит
Метод сжатия : С потерями
Размер потока : 319 Мбайт (9%)
Заголовок : original
Язык : French
ServiceKind/String : Complete Main
Default : Нет
Forced : Нет

Меню
00:00:00.000 : :Chapter 01
00:01:53.078 : :Chapter 02
00:08:37.798 : :Chapter 03
00:15:10.320 : :Chapter 04
00:21:17.278 : :Chapter 05
00:28:15.000 : :Chapter 06
00:33:55.440 : :Chapter 07
00:40:57.960 : :Chapter 08
00:45:22.038 : :Chapter 09
00:50:40.599 : :Chapter 10
00:57:33.320 : :Chapter 11
01:04:46.679 : :Chapter 12
01:10:56.880 : :Chapter 13
01:20:43.399 : :Chapter 14
01:29:28.720 : :Chapter 15
01:35:45.600 : :Chapter 16
01:39:40.720 : :Chapter 17
pb.wtf



Скачать Чужая родня через торрент https://b.radikal.ru/b00/1805/20/7ab578e6f94b.png Скачать фильм Чужая родня через торрент бесплантно в хорошем качестве О фильме: Лето 1942 года. Франция оккупирована фашистской Германией. Но хозяина мясной лавки Эдмона Ботиньоля присутствие немецких солдат ... 10 10 3
Info! Золотая раздача, скачанное не засчитывается.
Торрент: Зарегистрирован [2018-05-18 05:16] · скачан: 30 раз
Статус: √ проверено
Размер: 3.64 GB
Как cкачать? Как скачать Чужая родня через торрент | qTorrent

% Раздел Тема Автор DL S | L
Фильмы [HD 720p, 1080p] (Хороший звук DUB, MVO) [ 9.96 GB ] Чужая родня / Monsieur Batignole [2002 BDRip 1080p by msltel] MVO msltel Скачать
1 | 0

28-11-2019 20:33  

Отключить всю рекламу на сайте

    Дорогой пользователь! Огромная просьба, поблагодарите релизера, оцените раздачу и оставьте свои комментарий, если Вы скачали Чужая родня через торрент бесплатно! Внесите свою лепту в развитие PiratBit!
    Комментировать посты могут только пользователи прошедшие не сложную регистрацию
    Показать сообщения:    

    Чужая родня через торрент
    Скачать бесплатно Чужая родня
    Чужая родня скачать торрент
    Чужая родня смотреть онлайн
    Cкачать фильм Чужая родня бесплатно
    Чужая родня скачать торрент в хорошем качестве
    Чужая родня смотреть онлайн бесплатно в хорошем качестве


    Вы не можете начинать темы
    Вы не можете отвечать на сообщения
    Вы не можете редактировать свои сообщения
    Вы не можете удалять свои сообщения
    Вы не можете голосовать в опросах
    Вы не можете прикреплять файлы к сообщениям
    Вы можете скачивать файлы