новый адрес
Мега распродажа FORZA HORIZON 4 ULTIMATE+ВСЕ DLC+ОНЛАЙН всего за 499р. 349 руб. (супер цена). Внимание количество ограничено!!!

iTunes

1+1

iTunes

мы

iTunes

1

iTunes

Чернобыль

iTunes

Ральф против интернета

Лицензия

ПШазам

Лицензия

Игра престолов

Лицензия

30
pack

ВАЖНО

!!Акция!!

Alien_RageХит недели

RePack

Resident Evil 21

ИГРА 18+

pack

RePack

Metro:Exodus

!!Акция!!

Alien_Rage

RePack

fifa19

RePack

Assassins Creed: Odyssey

RePack

NEED FOR SPEED™ PAYBACK

3 сезон

9 сезон

Бесстыжие 9 сезон

Все сериалы

все сериалы на PB.wtf

RePack

FAR CRY 5
Ребята, катастрофически не хватает 1900р. для оплаты серверов за Октябрь (всвязи с блокировками трафик упал в 3 раза), 1-2р., выручайте.
  

Золотая парочка (Андрей Силкин) [2018 г., Детектив, SATRip, Не требуется Русский] pb.wtf

Золотая парочка через торрент pb.wtf

Размер: 1.37 GB | Добавлен: 1 год 6 мес. назад | Торрент скачан:401 раз
Скачать  

18-05-2018 11:31 Золотая парочка Скачать торрент  

Золотая парочка
Год выпуска: 2018
Страна: Россия
Жанр: Детектив
Продолжительность: 01:27:42
Перевод: Не требуется Русский
Субтитры: Нет

Режиссер: Андрей Силкин



В ролях: Прохор Дубравин, Валерия Ланская, Артём Григорьев, Дана Абызова

Описание: Полиция одного из городов очень обеспокоена тем фактом ,что преступники укравшие множество драгоценностей из местных магазинов ,до сих пор ещё не пойманы .Действия преступников всегда одинаковы ,но угадать их маршрут невозможно.Также следствие не располагает какими либо данными об их внешности ,ведь во время ограбления все посетители и работники были усыплены.Единственное ,что известно это влюбленная пара молодых людей.Следователю Андреевой попадает в руки информация о возможном месте преступления и Александра излагает свои мысли руководству.Не получив поддержки ,она решает взять дело в свои руки .Убедив мужа в значимости культурного развития ,они отправляются на экскурсию в музей янтарных изделий.Не подавая виду,девушка пытается наладить общение с каждым участником экскурсии.По ее мнению , женщине удастся определить среди такого узкого круга людей именно ту пару,которая готовит злодеяние.Но это оказывается совсем не просто,ведь мужу совершенно не нравится необычное поведение жены.Юрий начинает понимать ,что цель их поездки далека от заявленной изначально...

Качество: SATRip
Формат: AVI
Видео кодек: XviD
Аудио кодек: AC3
Видео: 720x400 (1.80:1), 25 fps, XviD build 50 ~2028 kbps
Аудио#1: 48 kHz, AC3 Dolby Digital, 2/0 (L,R) ch, ~192 kbps
скриншот   скриншот   скриншот   скриншот  

General
Complete name : H:\релизы.торрентфайл\Zolotaya.parochka.SATRip.[www.riperam.org].avi
Format : AVI
Format/Info : Audio Video Interleave
File size : 1.37 GiB
Duration : 1h 27mn
Overall bit rate : 2 230 Kbps
Writing application : VirtualDubMod 1.5.10.3 | www.virtualdub-fr.org || (build 2550/release)
Writing library : VirtualDubMod build 2550/release

Video
ID : 0
Format : MPEG-4 Visual
Format profile : Advanced Simple@L5
Format settings, BVOP : 2
Format settings, QPel : No
Format settings, GMC : No warppoints
Format settings, Matrix : Default (H.263)
Codec ID : XVID
Codec ID/Hint : XviD
Duration : 1h 27mn
Bit rate : 2 029 Kbps
Width : 720 pixels
Height : 400 pixels
Display aspect ratio : 16:9
Frame rate : 25.000 fps
Color space : YUV
Chroma subsampling : 4:2:0
Bit depth : 8 bits
Scan type : Progressive
Compression mode : Lossy
Bits/(Pixel*Frame) : 0.282
Stream size : 1.24 GiB (91%)
Writing library : XviD 1.2.1 (UTC 2008-12-04)

Audio
ID : 1
Format : AC-3
Format/Info : Audio Coding 3
Mode extension : CM (complete main)
Format settings, Endianness : Big
Codec ID : 2000
Duration : 1h 27mn
Bit rate mode : Constant
Bit rate : 192 Kbps
Channel(s) : 2 channels
Channel positions : Front: L R
Sampling rate : 48.0 KHz
Bit depth : 16 bits
Compression mode : Lossy
Stream size : 120 MiB (9%)
Alignment : Split accross interleaves
Interleave, duration : 40 ms (1.00 video frame)
Interleave, preload duration : 500 ms

pb.wtf



Скачать Золотая парочка через торрент http://i105.fastpic.ru/big/2018/0518/b2/68cfc251096d408b340b1f2a0d89f6b2.jpg Скачать фильм Золотая парочка через торрент бесплантно в хорошем качестве Описание: Полиция одного из городов очень обеспокоена тем фактом ,что преступники укравшие множество драгоценностей из местных магазинов ... 9 10 9
Торрент: Зарегистрирован [2018-05-18 11:31] · скачан: 401 раз
Статус: √ проверено
Размер: 1.37 GB
Как cкачать? Как скачать Золотая парочка через торрент | qTorrent

% Раздел Тема Автор DL S | L
Наши сериалы [ 1.11 GB ] Золотая парочка / Серии: 1-2 из 2 [2018 WEB-DLRip-AVC] bober100 Скачать
1 | 0
Наши сериалы [ 1.08 GB ] Золотая парочка / Серии: 1-2 из 2 [2018 WEB-DLRip] bober100 Скачать
1 | 0


>> Регистрируемся здесь <<






Отзывы и комментарии о схеме читаем и пишем здесь: ---> Отзывы и комментарии о схеме

Новые благодарочки в телеграм довольных пользователей:
скриншот   скриншот   скриншот   скриншот   скриншот
    Дорогой пользователь! Огромная просьба, поблагодарите релизера, оцените раздачу и оставьте свои комментарий, если Вы скачали Золотая парочка через торрент бесплатно! Внесите свою лепту в развитие PiratBit!
    Комментировать посты могут только пользователи прошедшие не сложную регистрацию
    Показать сообщения:    

    Золотая парочка через торрент
    Скачать бесплатно Золотая парочка
    Золотая парочка скачать торрент
    Золотая парочка смотреть онлайн
    Cкачать фильм Золотая парочка бесплатно
    Золотая парочка скачать торрент в хорошем качестве
    Золотая парочка смотреть онлайн бесплатно в хорошем качестве


    Вы не можете начинать темы
    Вы не можете отвечать на сообщения
    Вы не можете редактировать свои сообщения
    Вы не можете удалять свои сообщения
    Вы не можете голосовать в опросах
    Вы не можете прикреплять файлы к сообщениям
    Вы можете скачивать файлы