Ссылка на приватное зеркало нашего сайта всего за 1$. Внимание количество ограничено!!!

2 сезон

iTunes

1 сезон

1

2 сезон

2 сезон

iTunes

1 сезон

RePack

30

Ultimate

ВАЖНО

ИГРА 18+

pack

RePack

MK11
pack

Забери бонус

RePack

jed

!!Акция!!

Alien_Rage

RePack

fifa19

RePack

Assassins Creed: Odyssey

RePack

NEED FOR SPEED™ PAYBACK

4 сезон

9 сезон

Бесстыжие 9 сезон

Все сериалы

все сериалы на PB.wtf

RePack

FAR CRY 5
  

Женщина в белом / The Woman in White / Сезон 1 / Серии 1-5 из 5 (Карл Тиббеттс) [2018, драма, HDTVRip 720p] [MVO] (FilmsClub) pb.wtf

Женщина в белом через торрент pb.wtf

Размер: 4.25 GB | Добавлен: 2 года 6 мес. назад | Торрент скачан:24 раза
Скачать  

18-05-2018 13:50 Женщина в белом Скачать торрент  

Женщина в белом / The Woman in White
Информация о фильме

Год выхода: 2018
Жанр: драма
Страна: Великобритания
Продолжительность: ~ 01:00:00
Перевод: Профессиональный (многоголосый закадровый) *FilmsClub*

Режиссер: Карл Тиббеттс

В ролях: Дюгрей Скотт, Джесси Бакли, Оливия Виналл, Бен Харди, Риккардо Скамарчо, Арт Малик, Чарльз Дэнс, Рут Шин, Айван Кэй

О фильме:

На дворе девятнадцатый век. Мы в Великобритании, чтобы узнать историю молодого художника Уолтера Хартрайта. Главный герой направляется в одно из крупнейших имений страны, во главе которого стоит Фредерик Фэрли. Там Хартрайт будет учителем рисования. На своем пути мужчина знакомится с девушкой, которая весьма странно одета: все ее тело покрыто белыми одеяниями. Правда, спустя некоторое время, когда пара выбралась из Лондона, Фартрайт узнает, что новая знакомая - беглянка из психиатрической лечебницы. Именно она втягивает мужчину в мир полный опасностей, страха и таинственных событий!

rating

Файл

Формат: MKV
Качество: HDTVRip 720p
Видео: AVC(High@L4.1) , 1,78:1 = 16:9, 1280x720 / 1748 Kbps / 25 fps
Аудио 1: AC3 , 2.0 / 48 Khz / 192 kbps / 16-bit - *FilmsClub*
Аудио 2: AC3 , 2.0 / 48 Khz / 192 kbps / 16-bit - Оригинальный (English)
Субтитры: нет
General
Unique ID : 252028760308424404747011560942347232191 (0xBD9AF93FFA66AFEB953AF83A332C23BF)
Complete name : F:\The.Woman.In.White.S01.720p.films.club\The.Woman.In.White.S01E01.720p.hdtv.h264.mkv
Format : Matroska
Format version : Version 4 / Version 2
File size : 850 MiB
Duration : 55 min 39 s
Overall bit rate mode : Variable
Overall bit rate : 2 134 kb/s
Encoded date : UTC 2018-05-06 18:49:50
Writing application : mkvmerge v18.0.0 ('Apricity') 64-bit
Writing library : libebml v1.3.5 + libmatroska v1.4.8

Video
ID : 1
Format : AVC
Format/Info : Advanced Video Codec
Format profile : Main@L4
Format settings : CABAC / 1 Ref Frames
Format settings, CABAC : Yes
Format settings, RefFrames : 1 frame
Format settings, GOP : M=1, N=15
Codec ID : V_MPEG4/ISO/AVC
Duration : 55 min 39 s
Bit rate mode : Variable
Bit rate : 1 748 kb/s
Maximum bit rate : 5 250 kb/s
Width : 1 280 pixels
Height : 720 pixels
Display aspect ratio : 16:9
Frame rate mode : Constant
Frame rate : 25.000 FPS
Color space : YUV
Chroma subsampling : 4:2:0
Bit depth : 8 bits
Scan type : Progressive
Bits/(Pixel*Frame) : 0.076
Stream size : 696 MiB (82%)
Default : Yes
Forced : No

Audio #1
ID : 2
Format : AC-3
Format/Info : Audio Coding 3
Format settings, Endianness : Big
Codec ID : A_AC3
Duration : 55 min 39 s
Bit rate mode : Constant
Bit rate : 192 kb/s
Channel(s) : 2 channels
Channel positions : Front: L R
Sampling rate : 48.0 kHz
Frame rate : 31.250 FPS (1536 SPF)
Bit depth : 16 bits
Compression mode : Lossy
Stream size : 76.4 MiB (9%)
Language : Russian
Service kind : Complete Main
Default : Yes
Forced : No

Audio #2
ID : 3
Format : AC-3
Format/Info : Audio Coding 3
Format settings, Endianness : Big
Codec ID : A_AC3
Duration : 55 min 39 s
Bit rate mode : Constant
Bit rate : 192 kb/s
Channel(s) : 2 channels
Channel positions : Front: L R
Sampling rate : 48.0 kHz
Frame rate : 31.250 FPS (1536 SPF)
Bit depth : 16 bits
Compression mode : Lossy
Stream size : 76.4 MiB (9%)
Language : English
Service kind : Complete Main
Default : No
Forced : No
скриншот  скриншот  скриншот  
pb.wtf



Скачать Женщина в белом через торрент http://i104.fastpic.ru/big/2018/0518/20/b9d43e54453d3c9eeceb77a00fb76120.jpg Скачать фильм Женщина в белом через торрент бесплантно в хорошем качестве О фильме:На дворе девятнадцатый век. Мы в Великобритании, чтобы узнать историю молодого художника Уолтера Хартрайта. Главный герой ... 3.8 10 4
Торрент: Зарегистрирован [2018-05-18 13:50] · скачан: 24 раз
Статус: √ проверено
Размер: 4.25 GB
Как cкачать? Как скачать Женщина в белом через торрент | qTorrent

28-11-2019 20:33  

Отключить всю рекламу на сайте

    Дорогой пользователь! Огромная просьба, поблагодарите релизера, оцените раздачу и оставьте свои комментарий, если Вы скачали Женщина в белом через торрент бесплатно! Внесите свою лепту в развитие PiratBit!
    Комментировать посты могут только пользователи прошедшие не сложную регистрацию
    Показать сообщения:    

    Женщина в белом через торрент
    Скачать бесплатно Женщина в белом
    Женщина в белом скачать торрент
    Женщина в белом смотреть онлайн
    Cкачать фильм Женщина в белом бесплатно
    Женщина в белом скачать торрент в хорошем качестве
    Женщина в белом смотреть онлайн бесплатно в хорошем качестве


    Вы не можете начинать темы
    Вы не можете отвечать на сообщения
    Вы не можете редактировать свои сообщения
    Вы не можете удалять свои сообщения
    Вы не можете голосовать в опросах
    Вы не можете прикреплять файлы к сообщениям
    Вы можете скачивать файлы