Всегда рабочее зеркало без VPN и Proxy просто перед .vidak.icu напиши любое слово или цифру, Пример http://r4jo.vidak.icu

MVO

2 сезон

1 сезон

1

1 сезон

iTunes

2 сезон

13

1 сезон

Deluxe

pack

Рекомендуем

Пиратка

30

ВАЖНО

RePack

MK11

RePack

jed

RePack

fifa19

RePack

RDR2

RePack

NEED FOR SPEED™ PAYBACK

Кинопоиск HD

6 сезон

 Острые козырьки 6 сезон

Все сериалы

все сериалы на PB.wtf

RePack

FAR CRY 5

Anonymous, нам критически не хватает 5601 руб. на оплату серверов и переферии за Апрель, помоги нам пожалуйста, вся надежда только на тебя. В благодарность мы отключим тебе всю рекламу на сайте!

×
  
Magnet ссылка

Сверхъестественное / Supernatural / Сезон: 13 / Серии: 1-23 из 23 (Филип Сгриккиа, Джеймс Л. Конуэй, Питер Эллис) [2017, Ужасы, фэнтези, триллер, драма, детектив, WEB-DLRip] MVO [DreamRecords] pb.wtf

Сверхъестественное через торрент pb.wtf

Размер: 10.03 GB | Добавлен: 4 года назад | Торрент скачан:68 раз
Смотреть онлайн Сверхъестественное | Скачать    Ребята, помогите собрать деньги на оплату серверов!!!

19-05-2018 14:03 Сверхъестественное Скачать торрент  



Год выпуска: 2017
Страна: США
Жанр: Ужасы, фэнтези, триллер, драма, детектив
Продолжительность: ~ 00:43:00
Перевод: Любительский (многоголосый) |
Субтитры: отсутствуют

Режиссер: Филип Сгриккиа, Джеймс Л. Конуэй, Питер Эллис

rating

В ролях:

Джаред Падалеки, Дженсен Эклс, Джим Бивер, Миша Коллинз, Марк Шеппард, Джеффри Дин Морган, Женевьев Падалеки, Синди Сэмпсон, Саманта Феррис, Митч Пиледжи

Описание:

13 сезон - счастливое число для Винчестеров, счастливое число для Сверхъестественного, где братья Дин и Сэм Винчестеры ни на секунду не останавливают свой беспрерывный труд поиска и уничтожения демонов на территории США! Появление на свет сына Люцифера - Джека, открывшего двери в другой мир, где нет справедливости и братьев Винчестеров, лишь только постоянно воюющие бесы и ангелы, окончательно запутало взаимоотношения братьев с потусторонними силами. В этот другой мир как раз попала мать братьев - Мэри Винчестер. В реальном мире Сэм и Дин пытаются смириться с потерей матери, да и трагическая смерть Кастиэля заставляет их переосмыслить собственное будущее. Однако, несмотря на творящийся вокруг них ад, братья заявляют, что и на этот раз справятся и найдут выход из положения.

Качество: WEB-DLRip
Формат: AVI

Видео: 720x400, 23.976 fps, ~1300 kbps
Аудио: MP3, 48 kHz, 2 ch, 192 kbps


скриншот   скриншот   скриншот  

Общее
Полное имя : F:\Сверхъестественное (13 сезон)\Supernatural.S13E01.XviD.400p-[DreamRecords].avi
Формат : AVI
Формат/Информация : Audio Video Interleave
Размер файла : 449 Мбайт
Продолжительность : 41 м. 57 с.
Общий поток : 1496 Кбит/сек
Программа кодирования : VirtualDubModRus 1.5.10.2 (build 2542/release)
Библиотека кодирования : VirtualDubMod build 2542/release

Видео
Идентификатор : 0
Формат : MPEG-4 Visual
Профиль формата : Advanced Simple@L5
Параметр BVOP формата : 1
Параметр QPel формата : Нет
Параметр GMC формата : Без точки перехода
Параметр матрицы формата : Default (MPEG)
Идентификатор кодека : XVID
Идентификатор кодека/Подсказка : XviD
Продолжительность : 41 м. 57 с.
Битрейт : 1295 Кбит/сек
Ширина : 720 пикселей
Высота : 400 пикселей
Соотношение сторон : 16:9
Частота кадров : 23,976 (23976/1000) кадра/сек
Цветовое пространство : YUV
Субдискретизация насыщенности : 4:2:0
Битовая глубина : 8 бит
Тип развёртки : Прогрессивная
Метод сжатия : С потерями
Бит/(Пиксели*Кадры) : 0.188
Размер потока : 389 Мбайт (87%)
Библиотека кодирования : XviD 73

Аудио
Идентификатор : 1
Формат : MPEG Audio
Версия формата : Version 1
Профиль формата : Layer 3
Режим : Joint stereo
Идентификатор кодека : 55
Идентификатор кодека/Подсказка : MP3
Продолжительность : 41 м. 57 с.
Вид битрейта : Постоянный
Битрейт : 192 Кбит/сек
Каналы : 2 канала
Частота : 48,0 КГц
Метод сжатия : С потерями
Размер потока : 57,6 Мбайт (13%)
Выравнивание : Соединение по промежуткам
Продолжительность промежутка : 42 мс. (1,00 видеокадр)
Время предзагрузки промежутка : 504 мс.

pb.wtf



Скачать Сверхъестественное через торрент https://pic1.kartinco.top/images/11/pcl7r.jpg Скачать, смотреть онлайн Сверхъестественное бесплантно в хорошем качестве Описание: 13 сезон - счастливое число для Винчестеров, счастливое число для Сверхъестественного, где братья Дин и Сэм Винчестеры ни на ... 7.5 10 4
Торрент: Зарегистрирован [2018-05-19 14:03] · скачан: 68 раз
Статус: √ проверено
Размер: 10.03 GB
Как cкачать? Как скачать Сверхъестественное через торрент | UTorrent

% Раздел Тема Автор DL S | L
Сверхъестественное (Supernatural) [ 11.34 GB ] Сверхъестественное / Supernatural / Сезон: 13 / Серии: 1-23 из 23 [2017 WEBRip] MVO [Jaskier] bober100 Скачать
1 | 0
Сверхъестественное (Supernatural) [ 10.06 GB ] Сверхъестественное / Supernatural / Сезон: 13 / Серии 1-23 из 23 [2017 WEB-DLRip] MVO [LostFilm] GEKADOL Скачать
1 | 0
Сверхъестественное (Supernatural) [ 19.69 GB ] Сверхъестественное / Supernatural / Сезон: 13 / Серии: 1-23 из 23 [2017 HDTVRip 720p] MVO [DreamRecords] bober100 Скачать
1 | 0
Сверхъестественное (Supernatural) [ 76.57 GB ] Сверхъестественное / Supernatural / Сезон: 13 / Серии 1-23 из 23 [2017-2018 . WEBRip 1080p] [MVO] killermax2013 Скачать
1 | 0
Сверхъестественное (Supernatural) [ 20.81 GB ] Сверхъестественное / Supernatural / Сезон: 9 / Серии: 1-23 из 23 [2013-2014 HDTVRip 720p] MVO MEIDAN Скачать
1 | 0
Сверхъестественное (Supernatural) [ 5.18 GB ] Сверхъестественное / Supernatural / Сезон: 10 / Серии 1-13 из 23 [2014-2015 HDTVRip] Любительский одноголосый закадровый [Kerob] Anonymous Скачать
1 | 0
Сверхъестественное (Supernatural) [ 10.18 GB ] Сверхъестественное / Supernatural / Сезон: 9 / Серии: 1-23 из 23 [2013-2014 HDTVRip] MVO MEIDAN Скачать
1 | 0

28-11-2019 20:33  

Отключить всю рекламу на сайте

    Дорогой пользователь! Огромная просьба, поблагодарите релизера, оцените раздачу и оставьте свои комментарий, если Вы скачали Сверхъестественное через торрент бесплатно!
    Комментировать посты могут только пользователи прошедшие не сложную регистрацию
    Показать сообщения:    

    Сверхъестественное через торрент
    Скачать бесплатно Сверхъестественное
    Сверхъестественное скачать торрент
    Сверхъестественное смотреть онлайн
    Cкачать фильм Сверхъестественное бесплатно
    Сверхъестественное скачать торрент в хорошем качестве
    Сверхъестественное смотреть онлайн бесплатно в хорошем качестве


    Вы не можете начинать темы
    Вы можете отвечать на сообщения
    Вы не можете редактировать свои сообщения
    Вы не можете удалять свои сообщения
    Вы не можете голосовать в опросах
    Вы не можете прикреплять файлы к сообщениям
    Вы можете скачивать файлы