Всегда рабочее зеркало без VPN и Proxy просто перед .vidak.icu напиши любое слово или цифру, Пример http://axih.vidak.icu

MVO

2 сезон

2 сезон

1

1 сезон

iTunes

2 сезон

13

1 сезон

Deluxe

pack

Рекомендуем

Пиратка

30

ВАЖНО

RePack

MK11

RePack

jed

RePack

fifa19

RePack

RDR2

RePack

NEED FOR SPEED™ PAYBACK

Кинопоиск HD

6 сезон

 Острые козырьки 6 сезон

Все сериалы

все сериалы на PB.wtf

RePack

FAR CRY 5

Anonymous, нам критически не хватает 5601 руб. на оплату серверов и переферии за Апрель, помоги нам пожалуйста, вся надежда только на тебя. В благодарность мы отключим тебе всю рекламу на сайте!

×
  
Magnet ссылка

Сверхъестественное / Supernatural / Сезон: 13 / Серии: 1-23 из 23 (Филип Сгриккиа, Джеймс Л. Конуэй, Питер Эллис) [2017, Ужасы, фэнтези, триллер, драма, детектив, HDTVRip 720p] MVO [DreamRecords] pb.wtf

Сверхъестественное через торрент pb.wtf

Размер: 19.69 GB | Добавлен: 3 года 11 мес. назад | Торрент скачан:26 раз
Смотреть онлайн Сверхъестественное | Скачать    Ребята, помогите собрать деньги на оплату серверов!!!

19-05-2018 14:09 Сверхъестественное Скачать торрент  



Год выпуска: 2017
Страна: США
Жанр: Ужасы, фэнтези, триллер, драма, детектив
Продолжительность: ~ 00:43:00
Перевод: Любительский (многоголосый) |
Субтитры: отсутствуют

Режиссер: Филип Сгриккиа, Джеймс Л. Конуэй, Питер Эллис

rating

В ролях:

Джаред Падалеки, Дженсен Эклс, Джим Бивер, Миша Коллинз, Марк Шеппард, Джеффри Дин Морган, Женевьев Падалеки, Синди Сэмпсон, Саманта Феррис, Митч Пиледжи

Описание:

13 сезон - счастливое число для Винчестеров, счастливое число для Сверхъестественного, где братья Дин и Сэм Винчестеры ни на секунду не останавливают свой беспрерывный труд поиска и уничтожения демонов на территории США! Появление на свет сына Люцифера - Джека, открывшего двери в другой мир, где нет справедливости и братьев Винчестеров, лишь только постоянно воюющие бесы и ангелы, окончательно запутало взаимоотношения братьев с потусторонними силами. В этот другой мир как раз попала мать братьев - Мэри Винчестер. В реальном мире Сэм и Дин пытаются смириться с потерей матери, да и трагическая смерть Кастиэля заставляет их переосмыслить собственное будущее. Однако, несмотря на творящийся вокруг них ад, братья заявляют, что и на этот раз справятся и найдут выход из положения.

Качество: HDTVRip 720p
Формат: MKV

Видео: 1280x720, 23.976 fps, ~3000 kbps
Аудио: AC3, 48 kHz, 6 ch, 384 kbps


скриншот   скриншот   скриншот  

Общее
Уникальный идентификатор : 191966409020541916155012037695272358150 (0x906B62B31250EB6B9D0591DAE1AB9106)
Полное имя : F:\Сверхъестественное (13 сезон, 720p)\Supernatural.S13E01.HDTV.X264.720p-[DreamRecords].mkv
Формат : Matroska
Версия формата : Version 2
Размер файла : 1003 Мбайт
Продолжительность : 41 м. 46 с.
Режим общего битрейта : Переменный
Общий поток : 3357 Кбит/сек
Дата кодирования : UTC 2017-10-13 19:51:52
Программа кодирования : mkvmerge v5.8.0 ('No Sleep / Pillow') built on Sep 2 2012 15:37:04
Библиотека кодирования : libebml v1.2.3 + libmatroska v1.3.0

Видео
Идентификатор : 1
Формат : AVC
Формат/Информация : Advanced Video Codec
Профиль формата : High@L3.1
Параметр CABAC формата : Да
Параметр RefFrames формата : 5 кадров
Идентификатор кодека : V_MPEG4/ISO/AVC
Продолжительность : 41 м. 46 с.
Вид битрейта : Переменный
Битрейт : 2906 Кбит/сек
Максимальный битрейт : 4500 Кбит/сек
Ширина : 1280 пикселей
Высота : 720 пикселей
Соотношение сторон : 16:9
Режим частоты кадров : Постоянный
Частота кадров : 23,976 (24000/1001) кадра/сек
Цветовое пространство : YUV
Субдискретизация насыщенности : 4:2:0
Битовая глубина : 8 бит
Тип развёртки : Прогрессивная
Бит/(Пиксели*Кадры) : 0.132
Размер потока : 868 Мбайт (87%)
Default : Да
Forced : Нет
Цветовой диапазон : Limited
Основные цвета : BT.709
Характеристики трансфера : BT.709
Коэффициенты матрицы : BT.709

Аудио
Идентификатор : 2
Формат : AC-3
Формат/Информация : Audio Coding 3
Расширение режима : CM (complete main)
Параметр Endianness формата : Big
Идентификатор кодека : A_AC3
Продолжительность : 41 м. 46 с.
Вид битрейта : Постоянный
Битрейт : 384 Кбит/сек
Каналы : 6 каналов
Расположение каналов : Front: L C R, Side: L R, LFE
Частота : 48,0 КГц
Частота кадров : 31,250 кадров/сек (1536 spf)
Метод сжатия : С потерями
Размер потока : 115 Мбайт (11%)
Заголовок : DreamRecords
Язык : Russian
Default : Да
Forced : Нет

pb.wtf



Скачать Сверхъестественное через торрент https://pic1.kartinco.top/images/11/pcl7r.jpg Скачать, смотреть онлайн Сверхъестественное бесплантно в хорошем качестве Описание: 13 сезон - счастливое число для Винчестеров, счастливое число для Сверхъестественного, где братья Дин и Сэм Винчестеры ни на ... 7.8 10 4
Info! Серебряная раздача, засчитывается только 50% скачанного.
Торрент: Зарегистрирован [2018-05-19 14:09] · скачан: 26 раз
Статус: √ проверено
Размер: 19.69 GB
Как cкачать? Как скачать Сверхъестественное через торрент | UTorrent

% Раздел Тема Автор DL S | L
Сверхъестественное (Supernatural) [ 11.34 GB ] Сверхъестественное / Supernatural / Сезон: 13 / Серии: 1-23 из 23 [2017 WEBRip] MVO [Jaskier] bober100 Скачать
1 | 0
Сверхъестественное (Supernatural) [ 10.06 GB ] Сверхъестественное / Supernatural / Сезон: 13 / Серии 1-23 из 23 [2017 WEB-DLRip] MVO [LostFilm] GEKADOL Скачать
1 | 0
Сверхъестественное (Supernatural) [ 10.03 GB ] Сверхъестественное / Supernatural / Сезон: 13 / Серии: 1-23 из 23 [2017 WEB-DLRip] MVO [DreamRecords] bober100 Скачать
1 | 0
Сверхъестественное (Supernatural) [ 76.57 GB ] Сверхъестественное / Supernatural / Сезон: 13 / Серии 1-23 из 23 [2017-2018 . WEBRip 1080p] [MVO] killermax2013 Скачать
1 | 0
Сверхъестественное (Supernatural) [ 20.81 GB ] Сверхъестественное / Supernatural / Сезон: 9 / Серии: 1-23 из 23 [2013-2014 HDTVRip 720p] MVO MEIDAN Скачать
1 | 0
Сверхъестественное (Supernatural) [ 5.18 GB ] Сверхъестественное / Supernatural / Сезон: 10 / Серии 1-13 из 23 [2014-2015 HDTVRip] Любительский одноголосый закадровый [Kerob] Anonymous Скачать
1 | 0
Сверхъестественное (Supernatural) [ 10.18 GB ] Сверхъестественное / Supernatural / Сезон: 9 / Серии: 1-23 из 23 [2013-2014 HDTVRip] MVO MEIDAN Скачать
1 | 0

28-11-2019 20:33  

Отключить всю рекламу на сайте

    Дорогой пользователь! Огромная просьба, поблагодарите релизера, оцените раздачу и оставьте свои комментарий, если Вы скачали Сверхъестественное через торрент бесплатно!
    Комментировать посты могут только пользователи прошедшие не сложную регистрацию
    Показать сообщения:    

    Сверхъестественное через торрент
    Скачать бесплатно Сверхъестественное
    Сверхъестественное скачать торрент
    Сверхъестественное смотреть онлайн
    Cкачать фильм Сверхъестественное бесплатно
    Сверхъестественное скачать торрент в хорошем качестве
    Сверхъестественное смотреть онлайн бесплатно в хорошем качестве


    Вы не можете начинать темы
    Вы можете отвечать на сообщения
    Вы не можете редактировать свои сообщения
    Вы не можете удалять свои сообщения
    Вы не можете голосовать в опросах
    Вы не можете прикреплять файлы к сообщениям
    Вы можете скачивать файлы