Ссылка на приватное зеркало нашего сайта всего за 1$. Внимание количество ограничено!!!

2 сезон

iTunes

1 сезон

1

2 сезон

2 сезон

iTunes

1 сезон

RePack

30

Новинка

ВАЖНО

ИГРА 18+

pack

RePack

MK11
pack

Забери бонус

RePack

jed

!!Акция!!

Alien_Rage

RePack

fifa19

RePack

Assassins Creed: Odyssey

RePack

NEED FOR SPEED™ PAYBACK

4 сезон

9 сезон

Бесстыжие 9 сезон

Все сериалы

все сериалы на PB.wtf

RePack

FAR CRY 5
  

Запрос в друзья / Friend Request (Симон Ферхоэвен) [2016, Триллер, ужасы, BD Remux 1080p] DUB [Лицензия R5] pb.wtf

Запрос в друзья через торрент pb.wtf

Размер: 18.77 GB | Добавлен: 2 года 6 мес. назад | Торрент скачан:8 раз
Скачать  

19-05-2018 14:51 Запрос в друзья Скачать торрент  

Запрос в друзья / Friend Request
Год выпуска: 2016
Страна: Германия
Жанр: Триллер, ужасы
Продолжительность: 01:32:14
Перевод: Дублированный | Лицензия R5
Субтитры: английские

Режиссер: Симон Ферхоэвен

rating

В ролях:

Алисия Дебнем Кери, Уильям Моусли, Коннор Паоло, Бритт Морган, Брук Маркам, Шон Маркетт, Лизль Алерс, Шэшони Холл, Сьюзэн Дэнфорд, Ли Равив

Описание:

Вас добавляет в друзья одноклассник, однокурсник или коллега с работы, с которым вы практически никогда не общались, и начинает буквально атаковать вас сообщениями, почему-то решив, что вы с ним лучшие друзья. Знакомая ситуация? В подобную попадает Лора — главная героиня леденящего кровь триллера «Запрос в друзья». Решение удалить из френд-листа навязчивую и странноватую однокурсницу приведет к таким последствиям, которые не смогли бы предугадать даже самые большие любители хорроров.

Качество: BD Remux 1080p
Формат: MKV

Видео: MPEG-4 AVC, 1920x1080, 25.0 Mbit/s, 23.976 fps
Аудио#1: 48 kHz, AC3, 5.1, 448 Kbps | Дублированный | RUS |
Аудио#2: 48 kHz, DTS, 5.1, 3725 Kbps | Оригинал | ENG |
скриншот   скриншот   скриншот   скриншот   скриншот  

General
Unique ID : 41583879090679773114753241045007018316 (0x1F48C388087F88C0763D738E708B294C)
Complete name : C:Video111Friend.Request.2016.BDREMUX.1080p.ExKinoRay.mkv
Format : Matroska
Format version : Version 4 / Version 2
File size : 18.8 GiB
Duration : 1 h 32 min
Overall bit rate mode : Variable
Overall bit rate : 29.1 Mb/s
Movie name : Friend Request 2016 from ExKinoRay
Encoded date : UTC 2018-05-19 14:30:43
Writing application : mkvmerge v22.0.0 ('At The End Of The World') 64-bit
Writing library : libebml v1.3.5 + libmatroska v1.4.8

Video
ID : 1
Format : AVC
Format/Info : Advanced Video Codec
Format profile : High@L4.1
Format settings : CABAC / 3 Ref Frames
Format settings, CABAC : Yes
Format settings, ReFrames : 3 frames
Codec ID : V_MPEG4/ISO/AVC
Duration : 1 h 32 min
Bit rate mode : Variable
Bit rate : 25.0 Mb/s
Maximum bit rate : 35.0 Mb/s
Width : 1 920 pixels
Height : 1 080 pixels
Display aspect ratio : 16:9
Frame rate mode : Constant
Frame rate : 23.976 (24000/1001) FPS
Color space : YUV
Chroma subsampling : 4:2:0
Bit depth : 8 bits
Scan type : Progressive
Bits/(Pixel*Frame) : 0.502
Stream size : 16.1 GiB (86%)
Language : English
Default : Yes
Forced : No

Audio #1
ID : 2
Format : AC-3
Format/Info : Audio Coding 3
Codec ID : A_AC3
Duration : 1 h 32 min
Bit rate mode : Constant
Bit rate : 448 kb/s
Channel(s) : 6 channels
Channel positions : Front: L C R, Side: L R, LFE
Sampling rate : 48.0 kHz
Frame rate : 31.250 FPS (1536 SPF)
Bit depth : 16 bits
Compression mode : Lossy
Stream size : 296 MiB (2%)
Title : Dub [License R5]
Language : Russian
Service kind : Complete Main
Default : Yes
Forced : Yes

Audio #2
ID : 3
Format : DTS
Format/Info : Digital Theater Systems
Format profile : MA / Core
Codec ID : A_DTS
Duration : 1 h 32 min
Bit rate mode : Variable / Constant
Bit rate : 3 725 kb/s / 1 509 kb/s
Channel(s) : 6 channels
Channel positions : Front: L C R, Side: L R, LFE
Sampling rate : 48.0 kHz
Frame rate : 93.750 FPS (512 SPF)
Bit depth : 24 bits
Compression mode : Lossless / Lossy
Stream size : 2.40 GiB (13%)
Title : Original
Language : English
Default : No
Forced : No

Text
ID : 4
Format : UTF-8
Codec ID : S_TEXT/UTF8
Codec ID/Info : UTF-8 Plain Text
Duration : 1 h 24 min
Bit rate : 31 b/s
Count of elements : 647
Stream size : 19.6 KiB (0%)
Title : Full
Language : English
Default : No
Forced : No

Menu
00:00:00.000 : en:Chapter 01
00:07:43.880 : en:Chapter 02
00:14:25.948 : en:Chapter 03
00:20:36.652 : en:Chapter 04
00:29:16.546 : en:Chapter 05
00:37:00.343 : en:Chapter 06
00:43:50.377 : en:Chapter 07
00:53:24.326 : en:Chapter 08
01:00:05.935 : en:Chapter 09
01:07:50.483 : en:Chapter 10
01:15:56.218 : en:Chapter 11
01:26:02.282 : en:Chapter 12

pb.wtf



Скачать Запрос в друзья через торрент http://pic1.kartinco.top/images/11/x7q2i.jpg Скачать фильм Запрос в друзья через торрент бесплантно в хорошем качестве Описание: Вас добавляет в друзья одноклассник, однокурсник или коллега с работы, с которым вы практически никогда не общались, и начинает ... 7.8 10 4
Торрент: Зарегистрирован [2018-05-19 14:51] · скачан: 8 раз
Статус: √ проверено
Размер: 18.77 GB
Как cкачать? Как скачать Запрос в друзья через торрент | qTorrent

% Раздел Тема Автор DL S | L
Фильмы (HD 720p, 1080p) (48-60 fps) [ 10.87 GB ] Запрос в друзья / Friend Request [2016 BDRip 1080p / 60 FPS / Оригинал] Tiberiumsun69 Скачать
1 | 0
Фильмы 2016 [DVDrip, WEB-DLRip, HDrip] (DUB, MVO) [ 1.46 GB ] Запрос в друзья / Friend Request [2016 BDRip] - [] Twi7ter Скачать
7 | 0
R.G. Resident & PiratVoice - Фильмы, Видео [ 1.46 GB ] Запрос в друзья / Friend Request [2016 BDRip от R.G. Resident] DUB [ R5] -Lexx- Скачать
1 | 0
Фильмы 2016 [DVDrip, WEB-DLRip, HDrip] (DUB, MVO) [ 1.8 GB ] Запрос в друзья / Friend Request [2016 BDRip-AVC] DUB [] - ExKinoRay Enigma2010 Скачать
1 | 0
Фильмы [HD 720p, 1080p] (Хороший звук DUB, MVO) [ 8.75 GB ] Запрос в друзья / Friend Request [2016 BDRip 1080p] DUB [ R5] bober100 Скачать
1 | 0
Фильмы 2016 [DVDrip, WEB-DLRip, HDrip] (DUB, MVO) [ 1.46 GB ] Запрос в друзья / Friend Request [2016 BDRip] DUB [ R5] bober100 Скачать
1 | 0
T Фильмы без перевода [ 4.37 GB ] Запрос в друзья / Friend Request [2015 BDRip 720p] [Оригинал] smaster Скачать
1 | 0

28-11-2019 20:33  

Отключить всю рекламу на сайте

22-05-2018 20:25 Запрос в друзья Скачать торрент  

Как фильм ?pb.wtf



    Дорогой пользователь! Огромная просьба, поблагодарите релизера, оцените раздачу и оставьте свои комментарий, если Вы скачали Запрос в друзья через торрент бесплатно! Внесите свою лепту в развитие PiratBit!
    Комментировать посты могут только пользователи прошедшие не сложную регистрацию
    Показать сообщения:    

    Запрос в друзья через торрент
    Скачать бесплатно Запрос в друзья
    Запрос в друзья скачать торрент
    Запрос в друзья смотреть онлайн
    Cкачать фильм Запрос в друзья бесплатно
    Запрос в друзья скачать торрент в хорошем качестве
    Запрос в друзья смотреть онлайн бесплатно в хорошем качестве


    Вы не можете начинать темы
    Вы не можете отвечать на сообщения
    Вы не можете редактировать свои сообщения
    Вы не можете удалять свои сообщения
    Вы не можете голосовать в опросах
    Вы не можете прикреплять файлы к сообщениям
    Вы можете скачивать файлы