Ссылка на приватное зеркало всего за 1$. Внимание количество ограничено!!!

OK

1+1

iTunes

мы

OK

1

WEB-DLRip

Джокер

Пифагор

Ведьмак / The Witcher сериал

iTunes

ПШазам

ОК

Оно 2

iTunes

30
pack

Вам бонус

ВАЖНО

!!Акция!!

Alien_RageХит недели

RePack

Resident Evil 21

ИГРА 18+

pack

RePack

jed

RePack

fifa19

RePack

Assassins Creed: Odyssey

RePack

NEED FOR SPEED™ PAYBACK

4 сезон

9 сезон

Бесстыжие 9 сезон

Все сериалы

все сериалы на PB.wtf

RePack

FAR CRY 5
  

Ублюдок 2 / Creep 2 (Патрик Брайс) [2017, ужасы, триллер, WEB-DL 720p] MVO [Jaskier] pb.wtf

Ублюдок 2 через торрент pb.wtf

Размер: 2.52 GB | Добавлен: 1 год 8 мес. назад | Торрент скачан:42 раза
Скачать  

19-05-2018 15:42 Ублюдок 2 Скачать торрент  

Ублюдок 2 / Creep 2Год выпуска: 2017
Страна: США
Жанр: ужасы, триллер
Продолжительность: 01:20:02
Перевод: Профессиональный (многоголосый) | Jaskier
Субтитры: отсутствуют

Режиссер: Патрик Брайс

rating

В ролях:

Каран Сони, Марк Дюпласс, Дезире Акхаван, Кайл Филд, Кавех Зейхеди, Джефф Мэн, Патрик Брайс

Описание:

Серийный убийца Аарон больше не чувствует былого вдохновения и воодушевления. В отчаянии он публикует объявление о поиске видеографа, на которое откликается девушка Сара. Сара ведёт на Youtube канал о встречах с незнакомцами, но её ролики не пользуются популярностью, им не хватает чего-то особенного. Эти двое просто обязаны встретиться и помочь друг другу.

Качество: WEB-DL 720p
Формат: MKV

Видео: MPEG-4 AVC, 3130 Кбит/с, 1280x720
Аудио#1: Русский (AC3, 6 ch, 640 Кбит/с)
Аудио#2: английский (AC3, 6 ch, 640 Кбит/с)
скриншот  скриншот  скриншот  

Общее
Уникальный идентификатор : 182800434690457564875372936067864147165 (0x8986154627C46B1E9EF0A37A8D4534DD)
Полное имя : F:\Creep.2.2017.720p-JASKiER.mkv
Формат : Matroska
Версия формата : Version 2
Размер файла : 2,52 Гбайт
Продолжительность : 1 ч. 20 м.
Режим общего битрейта : Переменный
Общий поток : 4499 Кбит/сек
Дата кодирования : UTC 2018-05-19 14:01:36
Программа кодирования : mkvmerge v5.8.0 ('No Sleep / Pillow') built on Sep 2 2012 15:37:04
Библиотека кодирования : libebml v1.2.3 + libmatroska v1.3.0

Видео
Идентификатор : 1
Формат : AVC
Формат/Информация : Advanced Video Codec
Профиль формата : High@L3.1
Параметр CABAC формата : Да
Параметр RefFrames формата : 5 кадров
Идентификатор кодека : V_MPEG4/ISO/AVC
Продолжительность : 1 ч. 20 м.
Вид битрейта : Переменный
Битрейт : 3130 Кбит/сек
Максимальный битрейт : 4500 Кбит/сек
Ширина : 1280 пикселей
Высота : 720 пикселей
Соотношение сторон : 16:9
Режим частоты кадров : Постоянный
Частота кадров : 23,976 (24000/1001) кадра/сек
Цветовое пространство : YUV
Субдискретизация насыщенности : 4:2:0
Битовая глубина : 8 бит
Тип развёртки : Прогрессивная
Бит/(Пиксели*Кадры) : 0.142
Размер потока : 1,75 Гбайт (70%)
Язык : English
Default : Да
Forced : Нет
Цветовой диапазон : Limited
Основные цвета : BT.709
Характеристики трансфера : BT.709
Коэффициенты матрицы : BT.709

Аудио #1
Идентификатор : 2
Формат : AC-3
Формат/Информация : Audio Coding 3
Расширение режима : CM (complete main)
Параметр Endianness формата : Big
Идентификатор кодека : A_AC3
Продолжительность : 1 ч. 20 м.
Вид битрейта : Постоянный
Битрейт : 640 Кбит/сек
Каналы : 6 каналов
Расположение каналов : Front: L C R, Side: L R, LFE
Частота : 48,0 КГц
Частота кадров : 31,250 кадров/сек (1536 spf)
Метод сжатия : С потерями
Размер потока : 366 Мбайт (14%)
Язык : Russian
Default : Да
Forced : Нет

Аудио #2
Идентификатор : 3
Формат : E-AC-3
Формат/Информация : Audio Coding 3
Параметр Endianness формата : Big
Идентификатор кодека : A_EAC3
Продолжительность : 1 ч. 20 м.
Вид битрейта : Постоянный
Битрейт : 640 Кбит/сек
Каналы : 6 каналов
Расположение каналов : Front: L C R, Side: L R, LFE
Частота : 48,0 КГц
Частота кадров : 187,500 кадров/сек (256 spf)
Метод сжатия : С потерями
Размер потока : 366 Мбайт (14%)
Язык : English
Default : Нет
Forced : Нет

pb.wtf
!bober100 писал(а):

Реклама: Присутствует голосовая.



Скачать Ублюдок 2 через торрент http://img12.lostpic.net/2018/05/19/4b48cf1bcfb055c9d2ce1fe2e1e6fba7.jpg Скачать фильм Ублюдок 2 через торрент бесплантно в хорошем качестве Описание: Серийный убийца Аарон больше не чувствует былого вдохновения и воодушевления. В отчаянии он публикует объявление о поиске ... 8.2 10 5
Торрент: Зарегистрирован [2018-05-19 15:44] · скачан: 42 раз
Статус: # сомнительно
Размер: 2.52 GB
Как cкачать? Как скачать Ублюдок 2 через торрент | qTorrent

% Раздел Тема Автор DL S | L
T Фильмы (мультфильмы) cо спонсором показа (Новинки AVI/MKV) [ 1.34 GB ] Ублюдок 2 / Creep 2 [2017 WEB-DLRip] MVO [Jaskier] bober100 Скачать
1 | 0

28-11-2019 20:33  

Отключить всю рекламу на сайте

19-05-2018 20:05 Ублюдок 2 Скачать торрент  

Судя по названию, этот фильм рассказывает нам о спонсоре показа.pb.wtf



21-05-2018 15:29 Ублюдок 2 Скачать торрент  

Gorgoneus писал(а):

Судя по названию, этот фильм рассказывает нам о спонсоре показа.

pb.wtf



    Дорогой пользователь! Огромная просьба, поблагодарите релизера, оцените раздачу и оставьте свои комментарий, если Вы скачали Ублюдок 2 через торрент бесплатно! Внесите свою лепту в развитие PiratBit!
    Комментировать посты могут только пользователи прошедшие не сложную регистрацию
    Показать сообщения:    

    Ублюдок 2 через торрент
    Скачать бесплатно Ублюдок 2
    Ублюдок 2 скачать торрент
    Ублюдок 2 смотреть онлайн
    Cкачать фильм Ублюдок 2 бесплатно
    Ублюдок 2 скачать торрент в хорошем качестве
    Ублюдок 2 смотреть онлайн бесплатно в хорошем качестве


    Вы не можете начинать темы
    Вы не можете отвечать на сообщения
    Вы не можете редактировать свои сообщения
    Вы не можете удалять свои сообщения
    Вы не можете голосовать в опросах
    Вы не можете прикреплять файлы к сообщениям
    Вы можете скачивать файлы