Ссылка на приватное зеркало нашего сайта всего за 1$. Внимание количество ограничено!!!

2 сезон

iTunes

1 сезон

1

2 сезон

2 сезон

iTunes

1 сезон

RePack

30

Новинка

ВАЖНО

ИГРА 18+

pack

RePack

MK11
pack

Забери бонус

RePack

jed

!!Акция!!

Alien_Rage

RePack

fifa19

RePack

Assassins Creed: Odyssey

RePack

NEED FOR SPEED™ PAYBACK

4 сезон

9 сезон

Бесстыжие 9 сезон

Все сериалы

все сериалы на PB.wtf

RePack

FAR CRY 5
  

Люцифер / Lucifer / Сезон: 3 / Серии: 1-24 из 24 (Лен Уайзман) [2017, Фэнтези, драма, ужасы, WEB-DL 1080p] MVO [NewStudio] pb.wtf

Люцифер через торрент pb.wtf

Размер: 43.89 GB | Добавлен: 2 года 6 мес. назад | Торрент скачан:34 раза
Скачать  

19-05-2018 17:34 Люцифер Скачать торрент  





Информация о фильме:

✦ Название: Люцифер
✦ Оригинальное название: Lucifer
✦ Год выхода: 2017
✦ Жанр: Фэнтези, драма, ужасы
✦ Страна: США
✦ Продолжительность: ~ 00:45:00
✦ Перевод: профессиональный (многоголосый, закадровый)
|
✦ Субтитры: | отсутствуют |

✦ Режиссер: Лен Уайзман

В ролях:

Рэйчел Харрис, Лорен Джерман, Кайла Юэлл, Кевин Алехандро, Лесли-Энн Брандт, Д.Б. Вудсайд, Том Эллис, Мэтт Корбой, Скарлет Эстевез


Описание:
Заскучавший и несчастный повелитель преисподней, Люцифер Морнингстар оставил свой престол и отправился в современный Лос-Анджелес, где основал ночной клуб «Lux». Очаровательный, харизматичный и дьявольски привлекательный Люцифер наслаждается своим отдыхом — вином, женщинами и музыкой — пока красивая поп-звезда не оказывается убитой на пороге его клуба…

rating

Информация о файле:


✦ Качество: WEB-DL 1080p
✦ Формат: MKV

✦ Видео: ~ 5 200 kbps | 1912x1072 (16:9) | 23,976 fps
✦ Аудио: Rus: АС3 | 48.0 KHz | 6 ch | 384 kbps |
✦ Аудио: Eng: АС3 | 48.0 KHz | 6 ch | 384 kbps |


скриншот   скриншот   скриншот  

Общее
Уникальный идентификатор : 250803166038801412966955889935164176229 (0xBCAEEEC97FA675D584F77DA37BACF765)
Полное имя : F:\Lucifer.S03.WEBDL.1080p_NewStudio.TV\Lucifer.s03e01.WEBDL.1080p.NewStudio.TV.mkv
Формат : Matroska
Версия формата : Version 4 / Version 2
Размер файла : 1,83 Гбайт
Продолжительность : 43 м. 59 с.
Общий поток : 5964 Кбит/сек
Дата кодирования : UTC 2017-12-17 16:20:04
Программа кодирования : mkvmerge v18.0.0 ('Apricity') 64-bit
Библиотека кодирования : libebml v1.3.5 + libmatroska v1.4.8

Видео
Идентификатор : 1
Формат : AVC
Формат/Информация : Advanced Video Codec
Профиль формата : High@L4
Параметр CABAC формата : Да
Параметр RefFrames формата : 4 кадра
Идентификатор кодека : V_MPEG4/ISO/AVC
Продолжительность : 43 м. 59 с.
Битрейт : 5194 Кбит/сек
Ширина : 1912 пикселей
Высота : 1072 пикселя
Соотношение сторон : 16:9
Режим частоты кадров : Постоянный
Частота кадров : 23,976 (23976/1000) кадра/сек
Цветовое пространство : YUV
Субдискретизация насыщенности : 4:2:0
Битовая глубина : 8 бит
Тип развёртки : Прогрессивная
Бит/(Пиксели*Кадры) : 0.106
Размер потока : 1,60 Гбайт (87%)
Язык : English
Default : Да
Forced : Нет
Цветовой диапазон : Limited
Основные цвета : BT.709
Характеристики трансфера : BT.709
Коэффициенты матрицы : BT.709

Аудио #1
Идентификатор : 2
Формат : AC-3
Формат/Информация : Audio Coding 3
Расширение режима : CM (complete main)
Параметр Endianness формата : Big
Идентификатор кодека : A_AC3
Продолжительность : 43 м. 59 с.
Вид битрейта : Постоянный
Битрейт : 384 Кбит/сек
Каналы : 6 каналов
Расположение каналов : Front: L C R, Side: L R, LFE
Частота : 48,0 КГц
Частота кадров : 31,250 кадров/сек (1536 spf)
Метод сжатия : С потерями
Размер потока : 121 Мбайт (6%)
Язык : Russian
Default : Да
Forced : Нет

Аудио #2
Идентификатор : 3
Формат : AC-3
Формат/Информация : Audio Coding 3
Расширение режима : CM (complete main)
Параметр Endianness формата : Big
Идентификатор кодека : A_AC3
Продолжительность : 43 м. 59 с.
Вид битрейта : Постоянный
Битрейт : 384 Кбит/сек
Каналы : 6 каналов
Расположение каналов : Front: L C R, Side: L R, LFE
Частота : 48,0 КГц
Частота кадров : 31,250 кадров/сек (1536 spf)
Метод сжатия : С потерями
Размер потока : 121 Мбайт (6%)
Язык : English
Default : Нет
Forced : Нет

pb.wtf



Скачать Люцифер через торрент http://i75.fastpic.ru/big/2016/0317/da/875c60f73400beeaa41230bfe33e0cda.gif Скачать фильм Люцифер через торрент бесплантно в хорошем качестве Описание:Заскучавший и несчастный повелитель преисподней, Люцифер Морнингстар оставил свой престол и отправился в современный Лос-Анджелес, ... 10 10 3
Info! Золотая раздача, скачанное не засчитывается.
Торрент: Зарегистрирован [2018-05-19 17:34] · скачан: 34 раз
Статус: √ проверено
Размер: 43.89 GB
Как cкачать? Как скачать Люцифер через торрент | qTorrent

28-11-2019 20:33  

Отключить всю рекламу на сайте

    Дорогой пользователь! Огромная просьба, поблагодарите релизера, оцените раздачу и оставьте свои комментарий, если Вы скачали Люцифер через торрент бесплатно! Внесите свою лепту в развитие PiratBit!
    Комментировать посты могут только пользователи прошедшие не сложную регистрацию
    Показать сообщения:    

    Люцифер через торрент
    Скачать бесплатно Люцифер
    Люцифер скачать торрент
    Люцифер смотреть онлайн
    Cкачать фильм Люцифер бесплатно
    Люцифер скачать торрент в хорошем качестве
    Люцифер смотреть онлайн бесплатно в хорошем качестве


    Вы не можете начинать темы
    Вы не можете отвечать на сообщения
    Вы не можете редактировать свои сообщения
    Вы не можете удалять свои сообщения
    Вы не можете голосовать в опросах
    Вы не можете прикреплять файлы к сообщениям
    Вы можете скачивать файлы