Ссылка на приватное зеркало всего за 1$. Внимание количество ограничено!!!

OK

1+1

iTunes

мы

OK

1

WEB-DLRip

Джокер

Пифагор

Ведьмак / The Witcher сериал

iTunes

ПШазам

ОК

Оно 2

iTunes

30
pack

Вам бонус

ВАЖНО

!!Акция!!

Alien_RageХит недели

RePack

Resident Evil 21

ИГРА 18+

pack

RePack

jed

RePack

fifa19

RePack

Assassins Creed: Odyssey

RePack

NEED FOR SPEED™ PAYBACK

4 сезон

9 сезон

Бесстыжие 9 сезон

Все сериалы

все сериалы на PB.wtf

RePack

FAR CRY 5
  

Пусть Господь посмотрит на это! / Que baje Dios y lo vea (Курро Веласкес) [2018, комедия, WEB-DL 720p] MVO ["Синема УС] pb.wtf

Пусть Господь посмотрит на это! через торрент pb.wtf

Размер: 3.34 GB | Добавлен: 1 год 8 мес. назад | Торрент скачан:44 раза
Скачать  

19-05-2018 18:23 Пусть Господь посмотрит на это! Скачать торрент  

Пусть Господь посмотрит на это! / Que baje Dios y lo veaГод выпуска: 2018
Страна: Испания
Жанр: комедия
Продолжительность: 01:26:13
Перевод: Любительский (многоголосый) ["Синема УС]
Субтитры: отсутствуют

Режиссер: Курро Веласкес

rating

В ролях:

Макарена Гарсия, Ален Эрнандес, Карра Элехальде, Фернандо Вальверде, Джоэль Боскед, Ланги, Чема Бласко, Хулиан Валькарсель-Карбонель, Франсиско Руэда

Описание:

Монастырь Святого Феодосия – довольно скучное место, известное только своей пекарней. Так было до тех пор, пока в наказание туда не отправили боевого падре Сальвадора. Он воспитает из слушателей семинарии настоящую футбольную команду, которая выйдет на поле играть с командой самого Папы Римского. От итога этого матча зависит, продадут ли монастырь под отель или его удастся спасти?..

Качество: WEB-DL 720p
Формат: MKV

Видео: h.264, 4 511 kb/s, 1280x536
Аудио#1: Русский, (AC3, 2 ch, 384 Кбит/с)
скриншот  скриншот  скриншот  

Общее
Уникальный идентификатор : 174812786067777457281062279751532611461 (0x8383B7CA960D8A09B17FEB86AC310785)
Полное имя : F:\Holy.Goalie.2017.P.WEB-DL.72Op_KOSHARA.mkv
Формат : Matroska
Версия формата : Version 2
Размер файла : 3,34 Гбайт
Продолжительность : 1 ч. 37 м.
Режим общего битрейта : Переменный
Общий поток : 4896 Кбит/сек
Дата кодирования : UTC 2018-05-19 04:21:56
Программа кодирования : mkvmerge v8.3.0 ('Over the Horizon') 64bit
Библиотека кодирования : libebml v1.3.1 + libmatroska v1.4.2

Видео
Идентификатор : 1
Формат : AVC
Формат/Информация : Advanced Video Codec
Профиль формата : High@L4.1
Параметр CABAC формата : Да
Параметр RefFrames формата : 4 кадра
Идентификатор кодека : V_MPEG4/ISO/AVC
Продолжительность : 1 ч. 37 м.
Вид битрейта : Переменный
Битрейт : 4511 Кбит/сек
Максимальный битрейт : 5000 Кбит/сек
Ширина : 1280 пикселей
Высота : 536 пикселей
Соотношение сторон : 2,40:1
Режим частоты кадров : Постоянный
Частота кадров : 23,976 (24000/1001) кадра/сек
Стандарт вещания : Component
Цветовое пространство : YUV
Субдискретизация насыщенности : 4:2:0
Битовая глубина : 8 бит
Тип развёртки : Прогрессивная
Бит/(Пиксели*Кадры) : 0.268
Размер потока : 3,01 Гбайт (90%)
Default : Да
Forced : Нет
Цветовой диапазон : Limited
Основные цвета : BT.709
Характеристики трансфера : BT.709
Коэффициенты матрицы : BT.709

Аудио
Идентификатор : 2
Формат : AC-3
Формат/Информация : Audio Coding 3
Расширение режима : CM (complete main)
Параметр Endianness формата : Big
Идентификатор кодека : A_AC3
Продолжительность : 1 ч. 37 м.
Вид битрейта : Постоянный
Битрейт : 384 Кбит/сек
Каналы : 2 канала
Расположение каналов : Front: L R
Частота : 48,0 КГц
Частота кадров : 31,250 кадров/сек (1536 spf)
Метод сжатия : С потерями
Размер потока : 268 Мбайт (8%)
Default : Да
Forced : Нет

pb.wtf



Скачать Пусть Господь посмотрит на это! через торрент http://img12.lostpic.net/2018/05/19/8912e292142a19978c40f0ef4a2d1fa0.jpg Скачать фильм Пусть Господь посмотрит на это! через торрент бесплантно в хорошем качестве Описание: Монастырь Святого Феодосия – довольно скучное место, известное только своей пекарней. Так было до тех пор, пока в наказание туда ... 9.5 10 4
Торрент: Зарегистрирован [2018-05-19 18:23] · скачан: 44 раз
Статус: T временная
Размер: 3.34 GB
Как cкачать? Как скачать Пусть Господь посмотрит на это! через торрент | qTorrent

% Раздел Тема Автор DL S | L
T Фильмы (мультфильмы) cо спонсором показа (Новинки AVI/MKV) [ 1.37 GB ] Пусть Господь посмотрит на это! / Que baje Dios y lo vea [2018 WEB-DLRip] MVO ["Синема УС] bober100 Скачать
1 | 0

28-11-2019 20:33  

Отключить всю рекламу на сайте

    Дорогой пользователь! Огромная просьба, поблагодарите релизера, оцените раздачу и оставьте свои комментарий, если Вы скачали Пусть Господь посмотрит на это! через торрент бесплатно! Внесите свою лепту в развитие PiratBit!
    Комментировать посты могут только пользователи прошедшие не сложную регистрацию
    Показать сообщения:    

    Пусть Господь посмотрит на это! через торрент
    Скачать бесплатно Пусть Господь посмотрит на это!
    Пусть Господь посмотрит на это! скачать торрент
    Пусть Господь посмотрит на это! смотреть онлайн
    Cкачать фильм Пусть Господь посмотрит на это! бесплатно
    Пусть Господь посмотрит на это! скачать торрент в хорошем качестве
    Пусть Господь посмотрит на это! смотреть онлайн бесплатно в хорошем качестве


    Вы не можете начинать темы
    Вы не можете отвечать на сообщения
    Вы не можете редактировать свои сообщения
    Вы не можете удалять свои сообщения
    Вы не можете голосовать в опросах
    Вы не можете прикреплять файлы к сообщениям
    Вы можете скачивать файлы