Ссылка на приватное зеркало нашего сайта всего за 1$. Внимание количество ограничено!!!

2 сезон

iTunes

1 сезон

1

2 сезон

2 сезон

iTunes

1 сезон

RePack

30

Новинка

ВАЖНО

ИГРА 18+

pack

RePack

MK11
pack

Забери бонус

RePack

jed

!!Акция!!

Alien_Rage

RePack

fifa19

RePack

Assassins Creed: Odyssey

RePack

NEED FOR SPEED™ PAYBACK

4 сезон

9 сезон

Бесстыжие 9 сезон

Все сериалы

все сериалы на PB.wtf

RePack

FAR CRY 5
  

В пустыне смерти / Into the Badlands / Сезон: 3 / Серии: 1-12 из 16 (Дэвид Добкин) [2018, Боевик, драма, приключения, WEB-DL 720p] MVO [NewStudio] pb.wtf

В пустыне смерти через торрент pb.wtf

Размер: 17.74 GB | Добавлен: 1 год 7 мес. назад | Торрент скачан:1 раз
Скачать  

19-05-2018 19:49 В пустыне смерти Скачать торрент  

В пустыне смерти / Into the Badlands
Информация о фильме:

✦ Название: В пустыне смерти
✦ Оригинальное название: Into the Badlands
✦ Год выпуска: 2018
✦ Страна: США
✦ Жанр: Боевик, драма, приключения
✦ Продолжительность: ~00:45:00 серия
✦ Перевод: Профессиональный многоголосый | Newstudio
✦ Субтитры: Русские

✦ Режиссер: Дэвид Добкин

rating

✦ В ролях:

Дэниэл Ву, Орла Брэйди, Сара Болджер, Арамис Найт, Эмили Бичем, Оливер Старк, Мадлен Манток, Элли Иоаннидес, Мартон Чокаш, Майкл Сил, Стивен Лэнг, Эллен Холлман, Тересса Лиэн, Джерри Таббс, Хайлен Бойд, Лэнс Хенриксен, Джастин Лебрун

✦ Описание:

Приключенческий боевик о двух друзьях. В пустыне смерти, какие испытания предстоит пройти главным героям на пути просвещения. Ради обретения высшей мудрости мастер боевых искусств Санни и его юный напарник решают пройти через неизведанные земли. Они знают, что там их будут встречать враждебно, но ради высшей цели главные герои готовы вынести всё. В основу сюжета сериала был положен китайский роман под названием «Путешествие на Запад». Во время путешествия Санни покажет в полной мере своё мастерство, а его юный друг сможет многому научиться, и владению собственным телом, и контролю над собственным духом.

Информация о файле:

✦ Качество: WEB-DL 720p
✦ Формат: MKV

✦ Видео: MPEG-4 AVC | ~ 4 100 Кбит/с | 1280x720
✦ Аудио#1: Русский (AC3, 6 ch, 384 Кбит/с)
✦ Аудио#2: английский (AC3, 6 ch, 384 Кбит/с)



Общее
Уникальный идентификатор : 221686558408146844833479036789457366126 (0xA6C747324247747085476324BBD72C6E)
Полное имя : F:\Into the Badlands (Season 03) NewStudio 720\Into.the.Badlands.s03e01.WEBDL.720p.NewStudio.TV.mkv
Формат : Matroska
Версия формата : Version 4 / Version 2
Размер файла : 1,42 Гбайт
Продолжительность : 42 м. 34 с.
Общий поток : 4782 Кбит/сек
Дата кодирования : UTC 2018-05-01 23:03:07
Программа кодирования : mkvmerge v9.8.0 ('Kuglblids') 64bit
Библиотека кодирования : libebml v1.3.4 + libmatroska v1.4.5

Видео
Идентификатор : 1
Формат : AVC
Формат/Информация : Advanced Video Codec
Профиль формата : High@L3.1
Параметр CABAC формата : Нет
Параметр RefFrames формата : 2 кадра
Идентификатор кодека : V_MPEG4/ISO/AVC
Продолжительность : 42 м. 34 с.
Битрейт : 4012 Кбит/сек
Ширина : 1280 пикселей
Высота : 718 пикселей
Соотношение сторон : 16:9
Режим частоты кадров : Постоянный
Частота кадров : 23,976 (24000/1001) кадра/сек
Цветовое пространство : YUV
Субдискретизация насыщенности : 4:2:0
Битовая глубина : 8 бит
Тип развёртки : Прогрессивная
Бит/(Пиксели*Кадры) : 0.182
Размер потока : 1,19 Гбайт (84%)
Язык : English
Default : Да
Forced : Нет
Цветовой диапазон : Limited
Основные цвета : BT.709
Характеристики трансфера : BT.709
Коэффициенты матрицы : BT.709

Аудио #1
Идентификатор : 2
Формат : AC-3
Формат/Информация : Audio Coding 3
Расширение режима : CM (complete main)
Параметр Endianness формата : Big
Идентификатор кодека : A_AC3
Продолжительность : 42 м. 34 с.
Вид битрейта : Постоянный
Битрейт : 384 Кбит/сек
Каналы : 6 каналов
Расположение каналов : Front: L C R, Side: L R, LFE
Частота : 48,0 КГц
Частота кадров : 31,250 кадров/сек (1536 spf)
Метод сжатия : С потерями
Размер потока : 117 Мбайт (8%)
Заголовок : NewStudio.TV
Язык : Russian
Default : Да
Forced : Нет

Аудио #2
Идентификатор : 3
Формат : AC-3
Формат/Информация : Audio Coding 3
Расширение режима : CM (complete main)
Параметр Endianness формата : Big
Идентификатор кодека : A_AC3
Продолжительность : 42 м. 34 с.
Вид битрейта : Постоянный
Битрейт : 384 Кбит/сек
Каналы : 6 каналов
Расположение каналов : Front: L C R, Side: L R, LFE
Частота : 48,0 КГц
Частота кадров : 31,250 кадров/сек (1536 spf)
Метод сжатия : С потерями
Размер потока : 117 Мбайт (8%)
Язык : English
Default : Нет
Forced : Нет

Текст
Идентификатор : 4
Формат : ASS
Идентификатор кодека : S_TEXT/ASS
Идентификатор кодека/Информация : Advanced Sub Station Alpha
Продолжительность : 32 м. 19 с.
Битрейт : 0 бит/сек
ElementCount : 2
Метод сжатия : Без потерь
Размер потока : 202 байт (0%)
Язык : Russian
Default : Да
Forced : Да

Внимание! Раздача ведётся путём добавления новых серий; при каждом добавлении создаётся новый торрент. Чтобы начать докачку новой серии, пользователям необходимо сделать следующее:
(1) остановить скачивание,
(2) удалить старый торрент у себя из клиента (старые серии удалять не надо),
(3) скачать новый торрент и запустить его у себя в клиенте вместо старого, при этом указать клиенту путь в старую папку куда и должно происходить скачивание новых серий.
Ваш клиент при этом должен произвести хеширование (проверку) старой папки (если не производит сам - помогите ему сделать это), и будет докачивать только те серии которых у вас ещё нет. Старые серии при этом не удаляются, а продолжают раздаваться!
Eсли вы уже удалили старые серии, то предотвратить повторную закачку старых серий можно, отжав галочку в соответствующих местах при запуске нового торрента. По возможности, желательно не удалять старые серии как можно дольше чтобы релизёр не столько продолжал раздавать старые серии, а смог сконцентрироваться на новых.
pb.wtf



Скачать В пустыне смерти через торрент http://pic1.kartinco.top/images/11/o4j8b.jpg Скачать фильм В пустыне смерти через торрент бесплантно в хорошем качестве Описание: Приключенческий боевик о двух друзьях. В пустыне смерти, какие испытания предстоит пройти главным героям на пути просвещения. ... 8 10 9
Торрент: Зарегистрирован [2019-04-22 16:56] · скачан: 1 раз
Статус: √ проверено
Размер: 17.74 GB
Как cкачать? Как скачать В пустыне смерти через торрент | qTorrent



Последний раз редактировалось: bober100 (2019-04-22 16:56), всего редактировалось 3 раз(а)

28-11-2019 20:33  

Отключить всю рекламу на сайте

14-07-2018 18:28 В пустыне смерти Скачать торрент  

Здорова, а чего в описании стоит типо: серии 1-8 из (10), какой из десяти, если в третьем сезоне всего 8 серий, а в описании этой раздачи написано типо из 10 серий, типо еще будут 2 серии????? в третьем сезоне всего 8 серий.pb.wtf



14-07-2018 18:36 В пустыне смерти Скачать торрент  

kops5 писал(а):

Здорова, а чего в описании стоит типо: серии 1-8 из (10), какой из десяти, если в третьем сезоне всего 8 серий, а в описании этой раздачи написано типо из 10 серий, типо еще будут 2 серии????? в третьем сезоне всего 8 серий.

В третьем сезоне их 16 и выйдут осенью. Как обновлю заменю на 16 серийpb.wtf



18-07-2018 18:07 В пустыне смерти Скачать торрент  

а есть еще какие сериалы с такой же кучей боевых искусств?pb.wtf



    Дорогой пользователь! Огромная просьба, поблагодарите релизера, оцените раздачу и оставьте свои комментарий, если Вы скачали В пустыне смерти через торрент бесплатно! Внесите свою лепту в развитие PiratBit!
    Комментировать посты могут только пользователи прошедшие не сложную регистрацию
    Показать сообщения:    

    В пустыне смерти через торрент
    Скачать бесплатно В пустыне смерти
    В пустыне смерти скачать торрент
    В пустыне смерти смотреть онлайн
    Cкачать фильм В пустыне смерти бесплатно
    В пустыне смерти скачать торрент в хорошем качестве
    В пустыне смерти смотреть онлайн бесплатно в хорошем качестве


    Вы не можете начинать темы
    Вы не можете отвечать на сообщения
    Вы не можете редактировать свои сообщения
    Вы не можете удалять свои сообщения
    Вы не можете голосовать в опросах
    Вы не можете прикреплять файлы к сообщениям
    Вы можете скачивать файлы