Ссылка на приватное зеркало нашего сайта всего за 1$. Внимание количество ограничено!!!

2 сезон

iTunes

1 сезон

1

2 сезон

2 сезон

iTunes

1 сезон

RePack

30

Новинка

ВАЖНО

ИГРА 18+

pack

RePack

MK11
pack

Забери бонус

RePack

jed

!!Акция!!

Alien_Rage

RePack

fifa19

RePack

Assassins Creed: Odyssey

RePack

NEED FOR SPEED™ PAYBACK

4 сезон

9 сезон

Бесстыжие 9 сезон

Все сериалы

все сериалы на PB.wtf

RePack

FAR CRY 5
  

Люди / Humans / Сезон: 3 / Серии: 1-8 из 8 (Льюис Арнольд, Сэмюэл Донован, Чина Му-Ен) [2018, Фантастика, драма, HDTVRip] MVO [Profix Media] pb.wtf

Люди через торрент pb.wtf

Размер: 3.71 GB | Добавлен: 2 года 4 мес. назад | Торрент скачан:16 раз
Скачать  

20-05-2018 01:53 Люди Скачать торрент  

Люди / HumansГод выпуска: 2018
Страна: США, Ирландия, Великобритания
Жанр: Фантастика, драма
Продолжительность: ~00:47:00
Перевод: Профессиональный (многоголосый) | Profix Media
Субтитры: отсутствуют

Режиссер: Льюис Арнольд, Сэмюэл Донован, Чина Му-Ен

rating

В ролях:

Джемма Чан, Джек Дерджс, Ребекка Фронт, Софи Гудинг, Том Гудман-Хилл, Уильям Хёрт, Колин Морган, Кэтрин Паркинсон, Алисия Вудхаус

Описание:

Действие сериала разворачивается в параллельном мире, где чрезвычайную популярность приобрели новые гаджеты — высокотехнологичные роботы-слуги, которые внешне пугающе похожи на людей. Одного такого «помощника по хозяйству» приобретает живущая в пригороде семья. Вскоре они осознают, что совместная с машиной жизнь повлечет за собой жуткие последствия. Драма является адаптацией шведского сериала "Реальные люди".

Качество: HDTVRip
Формат: AVI

Видео: ~ 1147 Кбит/с, 720х400
Аудио: Русский (MP3, 2 ch, 256 Кбит/с)
скриншот   скриншот   скриншот   скриншот   скриншот  

Общее
Полное имя : F:\Humans.S03.HDTVRip.Profix.Media\Humans.S03E01.HDTVRip.Profix.Media.avi
Формат : AVI
Формат/Информация : Audio Video Interleave
Размер файла : 454 Мбайт
Продолжительность : 47 м. 4 с.
Общий поток : 1347 Кбит/сек
Программа кодирования : Lavf57.82.101

Видео
Идентификатор : 0
Формат : xvid
Идентификатор кодека : xvid
Продолжительность : 47 м. 4 с.
Битрейт : 1079 Кбит/сек
Ширина : 720 пикселей
Высота : 400 пикселей
Соотношение сторон : 16:9
Частота кадров : 23,976 кадра/сек
Тип развёртки : Прогрессивная
Бит/(Пиксели*Кадры) : 0.156
Размер потока : 363 Мбайт (80%)
Заголовок : Video Track

Аудио
Идентификатор : 1
Формат : MPEG Audio
Версия формата : Version 1
Профиль формата : Layer 3
Режим : Joint stereo
Идентификатор кодека : 55
Идентификатор кодека/Подсказка : MP3
Продолжительность : 47 м. 4 с.
Вид битрейта : Постоянный
Битрейт : 256 Кбит/сек
Каналы : 2 канала
Частота : 48,0 КГц
Метод сжатия : С потерями
Размер потока : 86,2 Мбайт (19%)
Выравнивание : Соединение по промежуткам
Продолжительность промежутка : 24 мс. (0,58 видеокадр)
Заголовок : Audio Track

Внимание! Раздача ведётся путём добавления новых серий; при каждом добавлении создаётся новый торрент. Чтобы начать докачку новой серии, пользователям необходимо сделать следующее:
(1) остановить скачивание,
(2) удалить старый торрент-файл у себя из клиента (старые серии удалять не надо),
(3) скачать новый торрент-файл из раздачи и запустить его у себя в клиенте вместо старого, при этом указать клиенту путь в старую папку, куда и должно происходить скачивание новых серий.
pb.wtf



Скачать Люди через торрент http://d.radikal.ru/d02/1805/9f/4253d0191778.jpg Скачать фильм Люди через торрент бесплантно в хорошем качестве Описание: Действие сериала разворачивается в параллельном мире, где чрезвычайную популярность приобрели новые гаджеты — высокотехнологичные ... 9 10 5
Торрент: Зарегистрирован [2018-07-07 20:54] · скачан: 16 раз
Статус: √ проверено
Размер: 3.71 GB
Как cкачать? Как скачать Люди через торрент | qTorrent

% Раздел Тема Автор DL S | L
Зарубежные сериалы [ 6.08 GB ] Люди / Humans / Сезон: 3 / Серии: 1-8 из 8 [2018 HDTVRip 720p] MVO [Jaskier] bober100 Скачать
1 | 0
Зарубежные сериалы [ 4.41 GB ] Люди / Humans / Сезон: 3 / Серии: 1-8 из 8 [2018 HDTVRip] MVO [Jaskier] bober100 Скачать
1 | 0
Зарубежные сериалы [ 24.42 GB ] Люди / Humans / Сезон: 3 / Серии: 1-8 из 8 [2018 HDTV 1080p] MVO [Lostfilm] bober100 Скачать
1 | 0
Зарубежные сериалы [ 10.8 GB ] Люди / Humans / Сезон: 3 / Серии: 1-8 из 8 [2018 HDTVRip 720p] MVO [Profix Media] bober100 Скачать
1 | 0
Зарубежные сериалы [ 4.7 GB ] Люди / Humans / Сезон: 3 / Серии: 1-8 из 8 [2018 HDTVRip] MVO [Lostfilm] bober100 Скачать
1 | 0
Зарубежные сериалы [ 16.23 GB ] Люди / Humans / Сезон: 3 / Серии: 1-8 из 8 [2018 HDTVRip 1080p] MVO [Profix Media] bober100 Скачать
1 | 0

28-11-2019 20:33  

Отключить всю рекламу на сайте

    Дорогой пользователь! Огромная просьба, поблагодарите релизера, оцените раздачу и оставьте свои комментарий, если Вы скачали Люди через торрент бесплатно! Внесите свою лепту в развитие PiratBit!
    Комментировать посты могут только пользователи прошедшие не сложную регистрацию
    Показать сообщения:    

    Люди через торрент
    Скачать бесплатно Люди
    Люди скачать торрент
    Люди смотреть онлайн
    Cкачать фильм Люди бесплатно
    Люди скачать торрент в хорошем качестве
    Люди смотреть онлайн бесплатно в хорошем качестве


    Вы не можете начинать темы
    Вы не можете отвечать на сообщения
    Вы не можете редактировать свои сообщения
    Вы не можете удалять свои сообщения
    Вы не можете голосовать в опросах
    Вы не можете прикреплять файлы к сообщениям
    Вы можете скачивать файлы