Ссылка на приватное зеркало всего за 1$. Внимание количество ограничено!!!

OK

1+1

iTunes

мы

OK

1

WEB-DLRip

Джокер

Пифагор

Ведьмак / The Witcher сериал

iTunes

ПШазам

ОК

Оно 2

iTunes

30
pack

Вам бонус

ВАЖНО

!!Акция!!

Alien_RageХит недели

RePack

Resident Evil 21

ИГРА 18+

pack

RePack

jed

RePack

fifa19

RePack

Assassins Creed: Odyssey

RePack

NEED FOR SPEED™ PAYBACK

4 сезон

9 сезон

Бесстыжие 9 сезон

Все сериалы

все сериалы на PB.wtf

RePack

FAR CRY 5
  

Классный чин / Class Rank (Эрик Столц) [2017, Мелодрама, комедия, семейный, WEB-DL 720p] MVO ["Синема УС"] pb.wtf

Классный чин через торрент pb.wtf

Размер: 3.54 GB | Добавлен: 1 год 8 мес. назад | Торрент скачан:21 раз
Скачать  

20-05-2018 14:47 Классный чин Скачать торрент  

Классный чин / Class RankГод выпуска: 2017
Страна: США
Жанр: Мелодрама, комедия, семейный
Продолжительность: 01:21:41
Перевод: Любительский (многоголосый) | "Синема УС"
Субтитры: отсутствуют

Режиссер: Эрик Столц

rating

В ролях:

Скайлер Гизондо, Оливия Холт, Кристин Ченоуэт, Брюс Дерн, Ник Краузе, Кэтлин Чэлфант, Морган Робертс, Питер Мэлоуни, Дэнни Ванг, Мэри Кэтерин Духон

Описание:

Два старшеклассника объединяют свои усилия, чтобы составить достойную оппозицию школьному совету.

Качество: WEB-DL 720p
Формат: MKV

Видео: h.264, 4 438 kb/s, 1280x720
Аудио#1: Русский (AC3, 2 ch, 384 Кбит/с)
скриншот  скриншот  скриншот  

Общее
Уникальный идентификатор : 176864837867135016629030632688455528965 (0x850EEDC1A04CAAF48C377345A39C3205)
Полное имя : F:\Class.Rank.2017.P.WEB-DL.72Op_KOSHARA.mkv
Формат : Matroska
Версия формата : Version 2
Размер файла : 3,54 Гбайт
Продолжительность : 1 ч. 45 м.
Режим общего битрейта : Переменный
Общий поток : 4824 Кбит/сек
Дата кодирования : UTC 2018-05-19 04:18:16
Программа кодирования : mkvmerge v8.3.0 ('Over the Horizon') 64bit
Библиотека кодирования : libebml v1.3.1 + libmatroska v1.4.2

Видео
Идентификатор : 1
Формат : AVC
Формат/Информация : Advanced Video Codec
Профиль формата : High@L4.1
Параметр CABAC формата : Да
Параметр RefFrames формата : 4 кадра
Идентификатор кодека : V_MPEG4/ISO/AVC
Продолжительность : 1 ч. 45 м.
Вид битрейта : Переменный
Битрейт : 4438 Кбит/сек
Максимальный битрейт : 5000 Кбит/сек
Ширина : 1280 пикселей
Высота : 720 пикселей
Соотношение сторон : 16:9
Режим частоты кадров : Постоянный
Частота кадров : 23,976 (24000/1001) кадра/сек
Стандарт вещания : Component
Цветовое пространство : YUV
Субдискретизация насыщенности : 4:2:0
Битовая глубина : 8 бит
Тип развёртки : Прогрессивная
Бит/(Пиксели*Кадры) : 0.197
Размер потока : 3,19 Гбайт (90%)
Default : Да
Forced : Нет
Цветовой диапазон : Limited
Основные цвета : BT.709
Характеристики трансфера : BT.709
Коэффициенты матрицы : BT.709

Аудио
Идентификатор : 2
Формат : AC-3
Формат/Информация : Audio Coding 3
Расширение режима : CM (complete main)
Параметр Endianness формата : Big
Идентификатор кодека : A_AC3
Продолжительность : 1 ч. 45 м.
Вид битрейта : Постоянный
Битрейт : 384 Кбит/сек
Каналы : 2 канала
Расположение каналов : Front: L R
Частота : 48,0 КГц
Частота кадров : 31,250 кадров/сек (1536 spf)
Метод сжатия : С потерями
Размер потока : 289 Мбайт (8%)
Default : Да
Forced : Нет

pb.wtf



Скачать Классный чин через торрент http://img11.lostpic.net/2018/05/20/b25b0948c789f2254d3a682baddbfecd.jpg Скачать фильм Классный чин через торрент бесплантно в хорошем качестве Описание: Два старшеклассника объединяют свои усилия, чтобы составить достойную оппозицию школьному ... 7 10 3
Торрент: Зарегистрирован [2018-05-20 14:47] · скачан: 21 раз
Статус: T временная
Размер: 3.54 GB
Как cкачать? Как скачать Классный чин через торрент | qTorrent

% Раздел Тема Автор DL S | L
T Фильмы (мультфильмы) cо спонсором показа (Новинки AVI/MKV) [ 1.37 GB ] Классный чин / Class Rank [2017 Мело WEB-DLRip] MVO ["Синема УС"] bober100 Скачать
1 | 0

28-11-2019 20:33  

Отключить всю рекламу на сайте

    Дорогой пользователь! Огромная просьба, поблагодарите релизера, оцените раздачу и оставьте свои комментарий, если Вы скачали Классный чин через торрент бесплатно! Внесите свою лепту в развитие PiratBit!
    Комментировать посты могут только пользователи прошедшие не сложную регистрацию
    Показать сообщения:    

    Классный чин через торрент
    Скачать бесплатно Классный чин
    Классный чин скачать торрент
    Классный чин смотреть онлайн
    Cкачать фильм Классный чин бесплатно
    Классный чин скачать торрент в хорошем качестве
    Классный чин смотреть онлайн бесплатно в хорошем качестве


    Вы не можете начинать темы
    Вы не можете отвечать на сообщения
    Вы не можете редактировать свои сообщения
    Вы не можете удалять свои сообщения
    Вы не можете голосовать в опросах
    Вы не можете прикреплять файлы к сообщениям
    Вы можете скачивать файлы