Ссылка на приватное зеркало нашего сайта всего за 1$. Внимание количество ограничено!!!

2 сезон

iTunes

1 сезон

1

2 сезон

2 сезон

iTunes

1 сезон

RePack

30

Ultimate

ВАЖНО

ИГРА 18+

pack

RePack

MK11
pack

Забери бонус

RePack

jed

!!Акция!!

Alien_Rage

RePack

fifa19

RePack

Assassins Creed: Odyssey

RePack

NEED FOR SPEED™ PAYBACK

4 сезон

9 сезон

Бесстыжие 9 сезон

Все сериалы

все сериалы на PB.wtf

RePack

FAR CRY 5
  

Ординатор / The Resident / Сезон: 1 / Серии: 1-14 из 14 (Роб Корн, Билл Д’Элиа, Филлип Нойс) [2018, Драма, WEBRip, WEB-DLRip] MVO [BaibaKo] pb.wtf

Ординатор через торрент pb.wtf

Размер: 8.41 GB | Добавлен: 2 года 6 мес. назад | Торрент скачан:78 раз
Скачать  

20-05-2018 19:13 Ординатор Скачать торрент  

Ординатор / The Resident
Год выпуска: 2018
Страна: США
Жанр: Драма
Продолжительность: ~ 00:46:00
Перевод: Профессиональный многоголосый |
Субтитры: отсутствуют

Режиссер: Роб Корн, Билл Д’Элиа, Филлип Нойс

rating

В ролях:

Мэтт Зукри, Эмили ВанКэмп, Мелина Канакаридис, Ван Мартен, Маниш Дайал, Тассо Фельдман, Джессика Мизел, Винс Фостер, Элизабет Лудлоу, Кэролайн Фридлюнд

Описание:

Сериал рассказывает о молодом враче с идеалистическими взглядами на жизнь, который начинает работать под началом блестящего и более опытного врача. Со временем главный герой понимает, что не всё так просто, и в его работе есть сотня нюансов, на которые невозможно закрыть глаза.

Качество: WEBRip, WEB-DLRip
Формат: AVI

Видео: XviD, ~ 1500 Кбит/с, 720x400
Аудио#1: Русский (MP3, 2 ch, 192 Кбит/с)
Аудио#2: английский (MP3, 2 ch, 192 Кбит/с)
скриншот   скриншот   скриншот  

Общее
Полное имя : F:\The.Resident.s01.WEBRip.XviD.Rus.Eng.BaibaKo.tv\The.Resident.s01e01.WEBRip.XviD.Rus.Eng.BaibaKo.tv.avi
Формат : AVI
Формат/Информация : Audio Video Interleave
Размер файла : 604 Мбайт
Продолжительность : 44 м. 41 с.
Общий поток : 1890 Кбит/сек

Видео
Идентификатор : 0
Формат : MPEG-4 Visual
Профиль формата : Advanced Simple@L5
Параметр BVOP формата : 2
Параметр QPel формата : Нет
Параметр GMC формата : Без точки перехода
Параметр матрицы формата : Default (H.263)
Идентификатор кодека : XVID
Идентификатор кодека/Подсказка : XviD
Продолжительность : 44 м. 41 с.
Битрейт : 1499 Кбит/сек
Ширина : 720 пикселей
Высота : 400 пикселей
Соотношение сторон : 16:9
Частота кадров : 23,976 (24000/1001) кадра/сек
Цветовое пространство : YUV
Субдискретизация насыщенности : 4:2:0
Битовая глубина : 8 бит
Тип развёртки : Прогрессивная
Метод сжатия : С потерями
Бит/(Пиксели*Кадры) : 0.217
Размер потока : 479 Мбайт (79%)
Библиотека кодирования : XviD 65

Аудио #1
Идентификатор : 1
Формат : MPEG Audio
Версия формата : Version 1
Профиль формата : Layer 3
Режим : Joint stereo
Расширение режима : MS Stereo
Идентификатор кодека : 55
Идентификатор кодека/Подсказка : MP3
Продолжительность : 44 м. 41 с.
Вид битрейта : Постоянный
Битрейт : 192 Кбит/сек
Каналы : 2 канала
Частота : 48,0 КГц
Метод сжатия : С потерями
Размер потока : 61,4 Мбайт (10%)
Выравнивание : Соединение по промежуткам
Продолжительность промежутка : 167 мс. (4,00 видеокадра)
Время предзагрузки промежутка : 216 мс.
Заголовок : the.resident.s01e01 RUS
Библиотека кодирования : LAME3.99r
Настройки программы : -m j -V 4 -q 2 -lowpass 18.6 -b 192

Аудио #2
Идентификатор : 2
Формат : MPEG Audio
Версия формата : Version 1
Профиль формата : Layer 3
Режим : Joint stereo
Расширение режима : MS Stereo
Идентификатор кодека : 55
Идентификатор кодека/Подсказка : MP3
Продолжительность : 44 м. 41 с.
Вид битрейта : Постоянный
Битрейт : 192 Кбит/сек
Каналы : 2 канала
Частота : 48,0 КГц
Метод сжатия : С потерями
Размер потока : 61,4 Мбайт (10%)
Выравнивание : Соединение по промежуткам
Продолжительность промежутка : 167 мс. (4,00 видеокадра)
Время предзагрузки промежутка : 216 мс.
Заголовок : the.resident.s01e01 English
Библиотека кодирования : LAME3.99r
Настройки программы : -m j -V 4 -q 2 -lowpass 18.6 -b 192

pb.wtf



Скачать Ординатор через торрент http://i99.fastpic.ru/big/2018/0116/f8/96359d3f601f457adb44ffa17d9777f8.jpg Скачать фильм Ординатор через торрент бесплантно в хорошем качестве Описание: Сериал рассказывает о молодом враче с идеалистическими взглядами на жизнь, который начинает работать под началом блестящего и ... 10 10 3
Торрент: Зарегистрирован [2018-05-20 19:13] · скачан: 78 раз
Статус: √ проверено
Размер: 8.41 GB
Как cкачать? Как скачать Ординатор через торрент | qTorrent

% Раздел Тема Автор DL S | L
Зарубежные сериалы [ 6.94 GB ] Ординатор / The Resident / Сезон: 2 / Серии: 1-14 из 22 [2018 WEB-DLRip] [MVO] killermax2013 Скачать
1 | 0
Зарубежные сериалы [ 20.06 GB ] Ординатор / The Resident / Сезон: 1 / Серии: 1-14 из 14 [2018 WEB-DL 720p] [MVO] killermax2013 Скачать
1 | 0
Зарубежные сериалы [ 39.24 GB ] Ординатор / The Resident / Сезон: 1 / Серии: 1-14 из 14 [2018 WEBRip 1080p WEB-DL 1080p] MVO [BaibaKo] bober100 Скачать
1 | 0
Зарубежные сериалы [ 18.55 GB ] Ординатор / The Resident / Сезон: 1 / Серии: 1-14 из 14 [2018 WEBRip 720p] MVO [Jaskier] bober100 Скачать
1 | 0
Зарубежные сериалы [ 56.21 GB ] Ординатор / The Resident / Сезон: 1 / Серия: 1-14 из 14 [2018 WEBRip 1080p] [MVO] killermax2013 Скачать
1 | 0
Зарубежные сериалы [ 7.75 GB ] Ординатор / The Resident / Сезон: 1 / Серия: 1-14 из 14 [2018 WEBRip] [MVO] killermax2013 Скачать
1 | 0
Зарубежные сериалы [ 26.02 GB ] Ординатор / The Resident / Сезон: 1 / Серия: 1-14 из 14 [2018 медицина WEB-DL 1080p] [MVO] killermax2013 Скачать
1 | 0

28-11-2019 20:33  

Отключить всю рекламу на сайте

    Дорогой пользователь! Огромная просьба, поблагодарите релизера, оцените раздачу и оставьте свои комментарий, если Вы скачали Ординатор через торрент бесплатно! Внесите свою лепту в развитие PiratBit!
    Комментировать посты могут только пользователи прошедшие не сложную регистрацию
    Показать сообщения:    

    Ординатор через торрент
    Скачать бесплатно Ординатор
    Ординатор скачать торрент
    Ординатор смотреть онлайн
    Cкачать фильм Ординатор бесплатно
    Ординатор скачать торрент в хорошем качестве
    Ординатор смотреть онлайн бесплатно в хорошем качестве


    Вы не можете начинать темы
    Вы не можете отвечать на сообщения
    Вы не можете редактировать свои сообщения
    Вы не можете удалять свои сообщения
    Вы не можете голосовать в опросах
    Вы не можете прикреплять файлы к сообщениям
    Вы можете скачивать файлы