новый адрес
Ссылка на приватное зеркало всего за 1$. Внимание количество ограничено!!!

iTunes

1+1

iTunes

мы

iTunes

1

iTunes

Чернобыль

iTunes

Ральф против интернета

Лицензия

ПШазам

Лицензия

Оно 2

Лицензия

30
pack

Вам бонус

ВАЖНО

!!Акция!!

Alien_RageХит недели

RePack

Resident Evil 21

ИГРА 18+

pack

RePack

jed

!!Акция!!

Alien_Rage

RePack

fifa19

RePack

Assassins Creed: Odyssey

RePack

NEED FOR SPEED™ PAYBACK

3 сезон

9 сезон

Бесстыжие 9 сезон

Все сериалы

все сериалы на PB.wtf

RePack

FAR CRY 5
Ребята, катастрофически не хватает 1900р. для оплаты серверов за Октябрь (всвязи с блокировками трафик упал в 3 раза), 1-2р., выручайте.
  

Гордая Мэри / Proud Mary (Бабак Наджафи) [2018, боевик, триллер, BDRip-AVC] MVO [Лицензия] - ExKinoRay pb.wtf

Гордая Мэри через торрент pb.wtf

Раздают: 1 [ 0 KB/s ]
Размер: 1.44 GB | Добавлен: 1 год 2 мес. назад | Торрент скачан:116 раз
Скачать  

21-05-2018 00:38 Гордая Мэри Скачать торрент  

Информация о фильме
Название: Гордая Мэри
Оригинальное название: Proud Mary
Год выхода: 2018
Жанр: Боевик, триллер
Страна: США
Студия: Screen Gems
Продолжительность: 01:29:02
Перевод: Профессиональный (многоголосый, закадровый) | Лицензия
Режиссер: Бабак Наджафи
В ролях: Тараджи П. Хенсон, Билли Браун, Нил МакДонаф, Маргарет Эйвери, Ксандер Беркли, Раде Шербеджия, Эрик Ларей Харви, Дэнни Гловер

Описание:
На протяжении долгих лет Мэри является членом опасной преступной группировки, безжалостно и хладнокровно устраняя врагов, конкурентов и просто неугодных людей по приказу влиятельных боссов. Во время выполнения очередного заказа она впервые проявляет слабость и сохраняет жизнь ничего не подозревающему подростку, ставшему сиротой в результате её действий. Через год судьба вновь сводит её с тем самым пареньком, который теперь работает на одного из членов банды. Видя, как парень страдает от постоянных побоев и жестокого обращения, Мэри решает взять его под свою опеку.

rating

Формат: MKV
Качество: BDRip-AVC
Видео: MPEG-4 AVC, 1024x428 (2.40:1), 23.976 fps, 1424 Kbps, 0.136 bit/pixel
Аудио#1: Russian: 48 kHz, AC3, 3/2 (L,C,R,l,r) + LFE ch, ~448 kbps avg |Rus|
Аудио#2: English: 48 kHz, AC3, 3/2 (L,C,R,l,r) + LFE ch, ~448 kbps avg
Субтитры: Русские, английские
General
Unique ID : 221197492516609674994272397283202751527 (0xA6691662DE4AF233A84D422B7B9CDC27)
Complete name : D:\Gordaja.Meri.2018.BDRip.AVC.ExKinoRay.mkv
Format : Matroska
Format version : Version 2
File size : 1.44 GiB
Duration : 1 h 29 min
Overall bit rate : 2 322 kb/s
Movie name : Proud Mary (2018) from ExKinoRay
Encoded date : UTC 2018-09-07 03:01:21
Writing application : mkvmerge v5.6.0 ('Kenya Kane') built on May 27 2012 16:44:04
Writing library : libebml v1.2.3 + libmatroska v1.3.0

Video
ID : 1
Format : AVC
Format/Info : Advanced Video Codec
Format profile : High@L4.1
Format settings, CABAC : Yes
Format settings, ReFrames : 12 frames
Codec ID : V_MPEG4/ISO/AVC
Duration : 1 h 29 min
Bit rate : 1 424 kb/s
Width : 1 024 pixels
Height : 428 pixels
Display aspect ratio : 2.40:1
Frame rate mode : Constant
Frame rate : 23.976 (23976/1000) FPS
Color space : YUV
Chroma subsampling : 4:2:0
Bit depth : 8 bits
Scan type : Progressive
Bits/(Pixel*Frame) : 0.136
Stream size : 879 MiB (59%)
Title : Enigma
Writing library : x264 core 152 r2851 ba24899
Encoding settings : cabac=1 / ref=12 / deblock=1:-2:-2 / analyse=0x3:0x113 / me=umh / subme=10 / psy=1 / psy_rd=1.05:0.10 / mixed_ref=1 / me_range=32 / chroma_me=1 / trellis=2 / 8x8dct=1 / cqm=0 / deadzone=21,11 / fast_pskip=0 / chroma_qp_offset=-3 / threads=12 / lookahead_threads=3 / sliced_threads=0 / nr=0 / decimate=0 / interlaced=0 / bluray_compat=0 / constrained_intra=0 / bframes=10 / b_pyramid=2 / b_adapt=2 / b_bias=0 / direct=3 / weightb=1 / open_gop=0 / weightp=2 / keyint=240 / keyint_min=23 / scenecut=40 / intra_refresh=0 / rc_lookahead=40 / rc=2pass / mbtree=0 / bitrate=1424 / ratetol=1.0 / qcomp=0.60 / qpmin=0 / qpmax=51 / qpstep=4 / cplxblur=20.0 / qblur=0.5 / vbv_maxrate=50000 / vbv_bufsize=62500 / nal_hrd=none / filler=0 / ip_ratio=1.40 / pb_ratio=1.30 / aq=1:1.00
Language : English
Default : Yes
Forced : No
Color range : Limited
Color primaries : BT.709
Transfer characteristics : BT.709
Matrix coefficients : BT.709

Audio #1
ID : 2
Format : AC-3
Format/Info : Audio Coding 3
Mode extension : CM (complete main)
Format settings, Endianness : Big
Codec ID : A_AC3
Duration : 1 h 29 min
Bit rate mode : Constant
Bit rate : 448 kb/s
Channel(s) : 6 channels
Channel positions : Front: L C R, Side: L R, LFE
Sampling rate : 48.0 kHz
Frame rate : 31.250 FPS (1536 spf)
Compression mode : Lossy
Stream size : 285 MiB (19%)
Title : MVO (Blu-Ray)
Language : Russian
Default : Yes
Forced : No

Audio #2
ID : 3
Format : AC-3
Format/Info : Audio Coding 3
Mode extension : CM (complete main)
Format settings, Endianness : Big
Codec ID : A_AC3
Duration : 1 h 29 min
Bit rate mode : Constant
Bit rate : 448 kb/s
Channel(s) : 6 channels
Channel positions : Front: L C R, Side: L R, LFE
Sampling rate : 48.0 kHz
Frame rate : 31.250 FPS (1536 spf)
Compression mode : Lossy
Stream size : 285 MiB (19%)
Language : English
Default : No
Forced : No

Text #1
ID : 4
Format : UTF-8
Codec ID : S_TEXT/UTF8
Codec ID/Info : UTF-8 Plain Text
Title : Full
Language : Russian
Default : No
Forced : No

Text #2
ID : 5
Format : UTF-8
Codec ID : S_TEXT/UTF8
Codec ID/Info : UTF-8 Plain Text
Title : Full
Language : English
Default : No
Forced : No

Text #3
ID : 6
Format : UTF-8
Codec ID : S_TEXT/UTF8
Codec ID/Info : UTF-8 Plain Text
Title : SDH
Language : English
Default : No
Forced : No

Menu
00:00:00.000 : en:Chapter 01
00:03:23.077 : en:Chapter 02
00:09:20.268 : en:Chapter 03
00:15:58.374 : en:Chapter 04
00:22:10.245 : en:Chapter 05
00:28:13.650 : en:Chapter 06
00:33:54.198 : en:Chapter 07
00:37:56.357 : en:Chapter 08
00:45:14.920 : en:Chapter 09
00:50:40.120 : en:Chapter 10
00:55:58.229 : en:Chapter 11
00:59:59.095 : en:Chapter 12
01:05:12.992 : en:Chapter 13
01:10:28.724 : en:Chapter 14
01:15:46.542 : en:Chapter 15
01:20:09.179 : en:Chapter 16
Релиз от:

Автор релиза: pb.wtf



Скачать Гордая Мэри через торрент http://d.radikal.ru/d31/1804/a0/83720ef4bbcc.jpg Скачать фильм Гордая Мэри через торрент бесплантно в хорошем качестве Описание:На протяжении долгих лет Мэри является членом опасной преступной группировки, безжалостно и хладнокровно устраняя врагов, ... 10 10 4
Info! Золотая раздача, скачанное не засчитывается.
Торрент: Зарегистрирован [2018-09-07 03:23] · скачан: 116 раз
Статус: √ проверено
Размер: 1.44 GB
Как cкачать? Как скачать Гордая Мэри через торрент | qTorrent

Отключить всю рекламу на сайте

07-09-2018 03:25 Гордая Мэри Скачать торрент  

Обновлено до лицензии.pb.wtf



    Дорогой пользователь! Огромная просьба, поблагодарите релизера, оцените раздачу и оставьте свои комментарий, если Вы скачали Гордая Мэри через торрент бесплатно! Внесите свою лепту в развитие PiratBit!
    Комментировать посты могут только пользователи прошедшие не сложную регистрацию
    Показать сообщения:    

    Гордая Мэри через торрент
    Скачать бесплатно Гордая Мэри
    Гордая Мэри скачать торрент
    Гордая Мэри смотреть онлайн
    Cкачать фильм Гордая Мэри бесплатно
    Гордая Мэри скачать торрент в хорошем качестве
    Гордая Мэри смотреть онлайн бесплатно в хорошем качестве


    Вы не можете начинать темы
    Вы не можете отвечать на сообщения
    Вы не можете редактировать свои сообщения
    Вы не можете удалять свои сообщения
    Вы не можете голосовать в опросах
    Вы не можете прикреплять файлы к сообщениям
    Вы можете скачивать файлы