Ссылка на приватное зеркало нашего сайта всего за 1$. Внимание количество ограничено!!!

2 сезон

iTunes

1 сезон

1

iTunes

iTunes

iTunes

1 сезон

RePack

30

ИГРА 18+

pack

ВАЖНО

!!Акция!!

Alien_RageХит недели

RePack

MK11
pack

Забери бонус

RePack

jed

!!Акция!!

Alien_Rage

RePack

fifa19

RePack

Assassins Creed: Odyssey

RePack

NEED FOR SPEED™ PAYBACK

4 сезон

9 сезон

Бесстыжие 9 сезон

Все сериалы

все сериалы на PB.wtf

RePack

FAR CRY 5
  

Похищение Богини / Сезон: 1 / Серии: 1-8 из 8 (Александр Березань) [2010, Детектив, WEB-DL 720p] pb.wtf

Похищение Богини через торрент pb.wtf

Размер: 4.29 GB | Добавлен: 2 года 5 мес. назад | Торрент скачан:62 раза
Скачать  

21-05-2018 03:02 Похищение Богини Скачать торрент  

Похищение БогиниГод выпуска: 2010
Страна: Россия, Украина
Жанр: Детектив
Продолжительность: ~ 00:46:00
Перевод: Не требуется
Субтитры: Нет

Режиссер: Александр Березань



В ролях:

Павел Трубинер, Ольга Ломоносова, Андрей Финягин, Альберт Филозов, Игорь Лифанов, Дмитрий Лаленков, Дарья Белоусова, Анатолий Равикович, Анатолий Гущин, Дмитрий Шаракоис, Виктория Полторак, Анна Тамбова, Александр Булейко, Александр Погребняк, Сергей Щелкалин, Сергей Сипливый, Валентин Шестопалов, Вячеслав Николенко, Александр Галафутник, Игорь Артюшенко, Нина Антонова, Константин Косинский

Описание:

Перед самым открытием ювелирных салонов Максима Орлова, из экспозиции пропадает старинный гарнитур "Слезы Афродиты", предоставленный ему на время. Подозрение падает на Орлова, его арестовывают. Его сестра – известная телеведущая Лера Ильинская – во что бы то ни стало хочет выручить брата – не верит, что он мог быть замешан в преступлении. Цирк собирается на длительные гастроли за границу. Вера тоже оказывается причастна к гастролям – ей поручена серия программ о цирке. Более того, в труппу включен и следователь Илья – предварительные нити расследования потянулись именно в цирк. Вот так все и собрались "под куполом цирка". Отъезд труппы был омрачен трагическим событием тигр загрыз девушку. Но... со всем эти грузом проблем цирк отправился в Прагу.

Качество: WEB-DL 720p
Формат: MKV

Видео: MPEG-4 AVC, 1574 Кбит/с, 1280x720
Аудио: AС3, 2 ch, 192 Кбит/с
скриншот   скриншот   скриншот   скриншот   скриншот   скриншот  

Общее
Уникальный идентификатор : 171306385099299797262639019725311682046 (0x80E068E0502BA8AE8A620DF85F23A5FE)
Полное имя : F:\Poxishcenie.boginy.2010.VEB-DL.720.Generalfilm\Poxishcenie.boginy.01.2009.VEB-DL.720.Generalfilm.mkv
Формат : Matroska
Версия формата : Version 4 / Version 2
Размер файла : 544 Мбайт
Продолжительность : 46 м. 36 с.
Общий поток : 1631 Кбит/сек
Дата кодирования : UTC 2014-01-03 16:54:44
Программа кодирования : mkvmerge v6.3.0 ('You can't stop me!') built on Jun 28 2013 20:09:41
Библиотека кодирования : libebml v1.3.0 + libmatroska v1.4.0

Видео
Идентификатор : 1
Формат : AVC
Формат/Информация : Advanced Video Codec
Профиль формата : High@L3.1
Параметр CABAC формата : Да
Параметр RefFrames формата : 1 кадр
Идентификатор кодека : V_MPEG4/ISO/AVC
Продолжительность : 46 м. 36 с.
Битрейт : 1407 Кбит/сек
Ширина : 1280 пикселей
Высота : 720 пикселей
Соотношение сторон : 16:9
Режим частоты кадров : Постоянный
Частота кадров : 25,000 кадров/сек
Цветовое пространство : YUV
Субдискретизация насыщенности : 4:2:0
Битовая глубина : 8 бит
Тип развёртки : Прогрессивная
Бит/(Пиксели*Кадры) : 0.061
Размер потока : 469 Мбайт (86%)
Default : Да
Forced : Нет

Аудио
Идентификатор : 2
Формат : AC-3
Формат/Информация : Audio Coding 3
Расширение режима : CM (complete main)
Параметр Endianness формата : Big
Идентификатор кодека : A_AC3
Продолжительность : 46 м. 36 с.
Вид битрейта : Постоянный
Битрейт : 192 Кбит/сек
Каналы : 2 канала
Расположение каналов : Front: L R
Частота : 44,1 КГц
Частота кадров : 28,711 кадров/сек (1536 spf)
Метод сжатия : С потерями
Размер потока : 64,0 Мбайт (12%)
Default : Да
Forced : Нет

pb.wtf



Скачать Похищение Богини через торрент http://img12.lostpic.net/2018/05/21/e3a1d8fb40ce022442cdf9649c83ee89.jpg Скачать фильм Похищение Богини через торрент бесплантно в хорошем качестве Описание: Перед самым открытием ювелирных салонов Максима Орлова, из экспозиции пропадает старинный гарнитур "Слезы Афродиты", ... 7.8 10 4
Торрент: Зарегистрирован [2018-05-21 03:02] · скачан: 62 раз
Статус: √ проверено
Размер: 4.29 GB
Как cкачать? Как скачать Похищение Богини через торрент | qTorrent

28-11-2019 20:33  

Отключить всю рекламу на сайте

    Дорогой пользователь! Огромная просьба, поблагодарите релизера, оцените раздачу и оставьте свои комментарий, если Вы скачали Похищение Богини через торрент бесплатно! Внесите свою лепту в развитие PiratBit!
    Комментировать посты могут только пользователи прошедшие не сложную регистрацию
    Показать сообщения:    

    Похищение Богини через торрент
    Скачать бесплатно Похищение Богини
    Похищение Богини скачать торрент
    Похищение Богини смотреть онлайн
    Cкачать фильм Похищение Богини бесплатно
    Похищение Богини скачать торрент в хорошем качестве
    Похищение Богини смотреть онлайн бесплатно в хорошем качестве


    Вы не можете начинать темы
    Вы не можете отвечать на сообщения
    Вы не можете редактировать свои сообщения
    Вы не можете удалять свои сообщения
    Вы не можете голосовать в опросах
    Вы не можете прикреплять файлы к сообщениям
    Вы можете скачивать файлы