Ссылка на приватное зеркало всего за 1$. Внимание количество ограничено!!!

iTunes

1+1

iTunes

мы

WEB-DL

1

iTunes

Чернобыль

iTunes

Ральф против интернета

Лицензия

ПШазам

Лицензия

Оно 2

Лицензия

30
pack

Вам бонус

ВАЖНО

!!Акция!!

Alien_RageХит недели

RePack

Resident Evil 21

ИГРА 18+

pack

RePack

jed

!!Акция!!

Alien_Rage

RePack

fifa19

RePack

Assassins Creed: Odyssey

RePack

NEED FOR SPEED™ PAYBACK

3 сезон

9 сезон

Бесстыжие 9 сезон

Все сериалы

все сериалы на PB.wtf

RePack

FAR CRY 5
Ребята, катастрофически не хватает 1900р. для оплаты серверов за Октябрь (всвязи с блокировками трафик упал в 3 раза), 1-2р., выручайте.
  

Вдали от Родины (Алексей Швачко) [1960, СССР, драма, военный, DVDRip от AVP Studio] pb.wtf

Вдали от Родины через торрент pb.wtf

Размер: 1.09 GB | Добавлен: 1 год 6 мес. назад | Торрент скачан:18 раз
Скачать  

21-05-2018 10:40 Вдали от Родины Скачать торрент  

Вдали от Родины
Страна: СССР
Производство: Киностудия им. Довженко

Жанр: драма, военный
Год выпуска: 1960
Продолжительность: 01:23:00

Перевод: Не требуется
Cубтитры: нет
Оригинальная аудиодорожка: русский

Режиссер: Алексей Швачко

В ролях:
Вадим Медведев, Зинаида Кириенко, Ольга Викландт, Агния Елекоева, Михаил Белоусов, Владимир Емельянов, Анатолий Решетников, Всеволод Аксёнов, Михаил Козаков, Борис Дмоховский, Виктор Мягкий, Сергей Петров, Георгий (Юрий) Козаковский, Жан Мельников, Эмма Сидорова...
Об актёрах подробней

Описание:
По мотивам романа Юрия Дольд-Михайлика "И один в поле воин" (1956 г.). В конце пятидесятых годов роман пользовался невероятным успехом у читателей. В библиотеках на него записывались в очередь.
Советский разведчик лейтенант Гончаренко (Вадим Медведев) под именем барона фон Гольдринга переброшен в глубокий тыл к немцам, во Францию, с заданием узнать, где находится секретный подземный завод, изготовляющий новое оружие

Источник: DVD5 R5
Качество видео: DVDRip
Формат видео: AVI

Видео: 688х512 (4:3), 25 fps, XviD ~ 1418 kbps avg, 0.161 bit/pixel
Аудио: 48 kHz, Dolby Digital AC3 5.1, 448 kbps

Раздача от:
Общее
Полное имя : Vdali.ot.Rodiny.1960.DVDRip_[New-team]_by_AVP_Studio.avi
Формат : AVI
Формат/Информация : Audio Video Interleave
Размер файла : 1,09 Гбайт
Продолжительность : 1 ч. 22 м.
Общий поток : 1876 Кбит/сек
Программа кодирования : VirtualDubMod 1.5.10.3 | www.virtualdub-fr.org || (build 2550/release)
Библиотека кодирования : VirtualDubMod build 2550/release

Видео
Идентификатор : 0
Формат : MPEG-4 Visual
Профиль формата : Advanced Simple@L5
Настройки формата : BVOP1 / Custom Matrix
Параметр BVOP формата : 1
Параметр QPel формата : Нет
Параметр GMC формата : Без точки перехода
Параметр матрицы формата : Выборочная
Идентификатор кодека : XVID
Идентификатор кодека/Подсказка : XviD
Продолжительность : 1 ч. 22 м.
Битрейт : 1418 Кбит/сек
Ширина : 688 пикселей
Высота : 512 пикселей
Соотношение сторон : 4:3
Частота кадров : 25,000 кадров/сек
Цветовое пространство : YUV
Субдискретизация насыщенности : 4:2:0
Битовая глубина : 8 бит
Тип развёртки : Прогрессивная
Метод сжатия : С потерями
Бит/(Пиксели*Кадры) : 0.161
Размер потока : 842 Мбайт (76%)
Библиотека кодирования : XviD 73

Аудио
Идентификатор : 1
Формат : AC-3
Формат/Информация : Audio Coding 3
Идентификатор кодека : 2000
Продолжительность : 1 ч. 22 м.
Вид битрейта : Постоянный
Битрейт : 448 Кбит/сек
Каналы : 6 каналов
Расположение каналов : Front: L C R, Side: L R, LFE
Частота : 48,0 КГц
Частота кадров : 31,250 кадров/сек (1536 SPF)
Битовая глубина : 16 бит
Метод сжатия : С потерями
Размер потока : 266 Мбайт (24%)
Выравнивание : Разделение по промежуткам
Продолжительность промежутка : 40 мс. (1,00 видеокадр)
Время предзагрузки промежутка : 500 мс
pb.wtf



Скачать Вдали от Родины через торрент http://picplus.ru/img/1805/21/2279d683.png Скачать фильм Вдали от Родины через торрент бесплантно в хорошем качестве Описание:По мотивам романа Юрия Дольд-Михайлика "И один в поле воин" (1956 г.). В конце пятидесятых годов роман пользовался невероятным ... 5 10 1
Info! Золотая раздача, скачанное не засчитывается.
Торрент: Зарегистрирован [2018-05-21 10:40] · скачан: 18 раз
Статус: √ проверено
Размер: 1.09 GB
Как cкачать? Как скачать Вдали от Родины через торрент | qTorrent

% Раздел Тема Автор DL S | L
Кино СССР [ 1.09 GB ] Вдали от Родины [1960 СССР военный DVDRip-AVC от AVP Studio] AVP Studio Скачать
1 | 0

28-11-2019 20:33  

Отключить всю рекламу на сайте

    Дорогой пользователь! Огромная просьба, поблагодарите релизера, оцените раздачу и оставьте свои комментарий, если Вы скачали Вдали от Родины через торрент бесплатно! Внесите свою лепту в развитие PiratBit!
    Комментировать посты могут только пользователи прошедшие не сложную регистрацию
    Показать сообщения:    

    Вдали от Родины через торрент
    Скачать бесплатно Вдали от Родины
    Вдали от Родины скачать торрент
    Вдали от Родины смотреть онлайн
    Cкачать фильм Вдали от Родины бесплатно
    Вдали от Родины скачать торрент в хорошем качестве
    Вдали от Родины смотреть онлайн бесплатно в хорошем качестве


    Вы не можете начинать темы
    Вы не можете отвечать на сообщения
    Вы не можете редактировать свои сообщения
    Вы не можете удалять свои сообщения
    Вы не можете голосовать в опросах
    Вы не можете прикреплять файлы к сообщениям
    Вы можете скачивать файлы