2 сезон

iTunes

MVO

1

2 сезон

iTunes

1 сезон

1 сезон

RePack

30

Новинка

ВАЖНО

ИГРА 18+

pack

RePack

MK11
pack

Легкие деньги

RePack

jed

RePack

fifa19

RePack

RDR2

RePack

NEED FOR SPEED™ PAYBACK

4 сезон

9 сезон

Бесстыжие 9 сезон

Все сериалы

все сериалы на PB.wtf

RePack

FAR CRY 5

Anonymous, добрый вечер, мы не успеваем собрать деньги на оплату серверов за декабрь и январь, помогите нам пожалуйста в это трудное время. В качестве благодарности мы отключим Вам всю рекламу на сайте (укажите свой ник в строку Ваше имя)!

×
  
Magnet ссылка

Время псов / Hunter's Prayer (Джонатан Мостоу) [2017, Боевик, BDRip-AVC] DUB [Лицензия R5] pb.wtf

Время псов через торрент pb.wtf

Размер: 1.46 GB | Добавлен: 2 года 8 мес. назад | Торрент скачан:207 раз
Скачать  

21-05-2018 13:40 Время псов Скачать торрент  

Время псов / Hunter's Prayer
Год выпуска: 2017
Страна: Германия
Жанр: Боевик
Продолжительность: 01:31:15
Перевод: Дублированный | Лицензия R5
Субтитры: английские

Режиссер: Джонатан Мостоу

rating

В ролях:

Сэм Уортингтон, Мартин Компстон, Одейя Раш, Вероника Эчеги, Аллен Лич, Эми Ландекер, Дин Джаггер III, Катя Бокор, Сэм Каллингворт

Описание:

Чтобы преподать урок своему работнику, крупный бизнесмен мистер Эдисон, нанимает киллера по имени Лукас. Лукасу нужно убить дочь бывшего адвоката мистера Эдисона. Но Лукас не справляется с заданием, сам становится целью и теперь они вместе вынуждены бежать от убийц Эдисона

Качество: BDRip-AVC
Формат: MKV

Видео: 720x302 (2.40:1), 23.976 fps, x264 ~1839 kbps avg, 0.353 bit/pixel
Аудио: 48 kHz, AC3 Dolby Digital, 3/2 (L,C,R,l,r) + LFE ch, ~448.00 kbps avg | RUS (Лицензия)
скриншот   скриншот   скриншот   скриншот   скриншот  

Общее
Уникальный идентификатор : 197251179066962161094076563466715232055 (0x946531FACB78B5D782D08B0D47AD7737)
Полное имя : E:OlLanDGroupThe.Hunter's.Prayer.2017.BDRip(AVC).OlLanDGroup.mkv
Формат : Matroska
Версия формата : Version 4 / Version 2
Размер файла : 1,46 Гбайт
Продолжительность : 1 ч. 31 м.
Общий поток : 2288 Кбит/сек
Название фильма : The.Hunter's.Prayer.2017 #TorpedoUK#
Дата кодирования : UTC 2018-05-21 12:40:54
Программа кодирования : mkvmerge v8.3.0 ('Over the Horizon') 64bit
Библиотека кодирования : libebml v1.3.1 + libmatroska v1.4.2

Видео
Идентификатор : 1
Формат : AVC
Формат/Информация : Advanced Video Codec
Профиль формата : High@L4.1
Параметр CABAC формата : Да
Параметр ReFrames формата : 10 кадров
Идентификатор кодека : V_MPEG4/ISO/AVC
Продолжительность : 1 ч. 31 м.
Битрейт : 1839 Кбит/сек
Ширина : 720 пикселей
Высота : 302 пикселя
Соотношение сторон : 2,40:1
Режим частоты кадров : Постоянный
Частота кадров : 23,976 (24000/1001) кадра/сек
Цветовое пространство : YUV
Субдискретизация насыщенности : 4:2:0
Битовая глубина : 8 бит
Тип развёртки : Прогрессивная
Бит/(Пиксели*Кадры) : 0.353
Размер потока : 1,17 Гбайт (80%)
Библиотека кодирования : x264 core 146 r2538 121396c
Настройки программы : cabac=1 / ref=10 / deblock=1:-3:-3 / analyse=0x3:0x133 / me=umh / subme=11 / psy=1 / psy_rd=1.00:0.07 / mixed_ref=1 / me_range=48 / chroma_me=1 / trellis=2 / 8x8dct=1 / cqm=0 / deadzone=21,11 / fast_pskip=0 / chroma_qp_offset=-3 / threads=6 / lookahead_threads=1 / sliced_threads=0 / nr=0 / decimate=0 / interlaced=0 / bluray_compat=0 / constrained_intra=0 / bframes=10 / b_pyramid=2 / b_adapt=2 / b_bias=0 / direct=3 / weightb=1 / open_gop=0 / weightp=2 / keyint=240 / keyint_min=23 / scenecut=40 / intra_refresh=0 / rc_lookahead=40 / rc=2pass / mbtree=0 / bitrate=1839 / ratetol=1.0 / qcomp=0.60 / qpmin=0 / qpmax=69 / qpstep=4 / cplxblur=20.0 / qblur=0.5 / vbv_maxrate=50000 / vbv_bufsize=62500 / nal_hrd=none / filler=0 / ip_ratio=1.40 / pb_ratio=1.30 / aq=1:1.00
Default : Да
Forced : Нет

Аудио
Идентификатор : 2
Формат : AC-3
Формат/Информация : Audio Coding 3
Расширение режима : CM (complete main)
Параметр Endianness формата : Big
Идентификатор кодека : A_AC3
Продолжительность : 1 ч. 31 м.
Вид битрейта : Постоянный
Битрейт : 448 Кбит/сек
Каналы : 6 каналов
Расположение каналов : Front: L C R, Side: L R, LFE
Частота : 48,0 КГц
Частота кадров : 31,250 кадров/сек (1536 spf)
Битовая глубина : 16 бит
Метод сжатия : С потерями
Размер потока : 292 Мбайт (20%)
Заголовок : License
Язык : Russian
Default : Да
Forced : Нет

Текст
Идентификатор : 3
Формат : UTF-8
Идентификатор кодека : S_TEXT/UTF8
Идентификатор кодека/Информация : UTF-8 Plain Text
Продолжительность : 1 ч. 23 м.
Битрейт : 37 бит/сек
Count of elements : 992
Размер потока : 23,2 Кбайт (0%)
Заголовок : SDH
Язык : English
Default : Нет
Forced : Нет

Меню
00:00:00.000 : en:Chapter 1
00:05:06.389 : en:Chapter 2
00:11:49.542 : en:Chapter 3
00:18:17.221 : en:Chapter 4
00:24:50.113 : en:Chapter 5
00:27:47.499 : en:Chapter 6
00:34:19.681 : en:Chapter 7
00:39:41.753 : en:Chapter 8
00:45:37.192 : en:Chapter 9
00:51:45.559 : en:Chapter 10
00:57:32.114 : en:Chapter 11
01:03:03.780 : en:Chapter 12
01:09:21.407 : en:Chapter 13
01:14:11.195 : en:Chapter 14
01:20:17.479 : en:Chapter 15
01:23:53.028 : en:Chapter 16
pb.wtf



Скачать Время псов через торрент http://s019.radikal.ru/i610/1705/e3/011c05630f91.jpg Скачать фильм Время псов через торрент бесплантно в хорошем качестве Описание: Чтобы преподать урок своему работнику, крупный бизнесмен мистер Эдисон, нанимает киллера по имени Лукас. Лукасу нужно убить дочь ... 10 10 5
Торрент: Зарегистрирован [2018-05-21 13:40] · скачан: 207 раз
Статус: √ проверено
Размер: 1.46 GB
Как cкачать? Как скачать Время псов через торрент | UTorrent

28-11-2019 20:33  

Отключить всю рекламу на сайте

21-05-2018 14:28 Время псов Скачать торрент  

то ощущение когда смотришь скрины читаешь описание и знаешь,
что смотрел его, но совершенно не помнишь о чем онpb.wtf



22-05-2018 02:45 Время псов Скачать торрент  

GuruBrain писал(а):

то ощущение когда смотришь скрины читаешь описание и знаешь,
что смотрел его, но совершенно не помнишь о чем он

вот вот, в точку!pb.wtf



    Дорогой пользователь! Огромная просьба, поблагодарите релизера, оцените раздачу и оставьте свои комментарий, если Вы скачали Время псов через торрент бесплатно! Внесите свою лепту в развитие PiratBit!
    Комментировать посты могут только пользователи прошедшие не сложную регистрацию
    Показать сообщения:    

    Время псов через торрент
    Скачать бесплатно Время псов
    Время псов скачать торрент
    Время псов смотреть онлайн
    Cкачать фильм Время псов бесплатно
    Время псов скачать торрент в хорошем качестве
    Время псов смотреть онлайн бесплатно в хорошем качестве


    Вы не можете начинать темы
    Вы не можете отвечать на сообщения
    Вы не можете редактировать свои сообщения
    Вы не можете удалять свои сообщения
    Вы не можете голосовать в опросах
    Вы не можете прикреплять файлы к сообщениям
    Вы можете скачивать файлы