новый адрес
Ссылка на приватное зеркало всего за 1$. Внимание количество ограничено!!!

iTunes

1+1

iTunes

мы

WEB-DL

1

iTunes

Чернобыль

iTunes

Ральф против интернета

Лицензия

ПШазам

Лицензия

Оно 2

Лицензия

30
pack

Вам бонус

ВАЖНО

!!Акция!!

Alien_RageХит недели

RePack

Resident Evil 21

ИГРА 18+

pack

RePack

jed

!!Акция!!

Alien_Rage

RePack

fifa19

RePack

Assassins Creed: Odyssey

RePack

NEED FOR SPEED™ PAYBACK

3 сезон

9 сезон

Бесстыжие 9 сезон

Все сериалы

все сериалы на PB.wtf

RePack

FAR CRY 5
Ребята, катастрофически не хватает 1900р. для оплаты серверов за Октябрь (всвязи с блокировками трафик упал в 3 раза), 1-2р., выручайте.
  

451 градус по Фаренгейту / Fahrenheit 451 (Рамин Бахрани) [2018, Фантастика, драма, WEB-DLRip-AVC] MVO [Amedia] - ExKinoRay pb.wtf

451 градус по Фаренгейту через торрент pb.wtf

Размер: 1.52 GB | Добавлен: 1 год 6 мес. назад | Торрент скачан:862 раза
Скачать  

21-05-2018 16:46 451 градус по Фаренгейту Скачать торрент  

Информация о фильме
Название: 451 градус по Фаренгейту
Оригинальное название: Fahrenheit 451
Год выхода: 2018
Жанр: Фантастика, Драма
Режиссер: Рамин Бахрани
В ролях: Майкл Б. Джордан, София Бутелла, Майкл Шеннон, Кир Дуллеа, Кэнди Александр, Мартин Донован, Лилли Сингх, Мэйко Нгуйен, Джо Пинг, Грэйс Линн Кунг

Описание:
В некоем тоталитарном обществе история переписывается, книги безжалостно сжигаются, а их чтение преследуется по закону.
После встречи с юной Клариссой «пожарный» Гай Монтэг меняет свои убеждения и начинает противостоять суровому брандмейстеру Битти.

rating

Страна: США
Студия: HBO Films
Продолжительность: 01:40:14
Перевод: Профессиональный (многоголосый, закадровый) | Amedia

Формат: MKV
Качество: WEB-DLRip-AVC
Видео: MPEG-4 AVC, 1024x576 (16:9), 23.976 fps, 1982 Kbps, 0.140 bit/pixel
Аудио: 48 kHz, AC3, 2.0 ch, ~192 kbps avg - Rus
General
Unique ID : 209994394872938834865626957275952797051 (0x9DFB7306E493EB6A996B0B8AA2A7557B)
Complete name : D:\Fahrenheit.451.2018.WEB-DLRip.AVC.ExKinoRay.mkv
Format : Matroska
Format version : Version 2
File size : 1.52 GiB
Duration : 1 h 40 min
Overall bit rate : 2 171 kb/s
Movie name : Fahrenheit 451 2018 from ExKinoRay
Encoded date : UTC 2018-05-21 10:38:51
Writing application : mkvmerge v5.6.0 ('Kenya Kane') built on May 27 2012 16:44:04
Writing library : libebml v1.2.3 + libmatroska v1.3.0

Video
ID : 1
Format : AVC
Format/Info : Advanced Video Codec
Format profile : High@L4.1
Format settings, CABAC : Yes
Format settings, ReFrames : 12 frames
Codec ID : V_MPEG4/ISO/AVC
Duration : 1 h 40 min
Bit rate : 1 982 kb/s
Width : 1 024 pixels
Height : 576 pixels
Display aspect ratio : 16:9
Frame rate mode : Constant
Frame rate : 23.976 (23976/1000) FPS
Color space : YUV
Chroma subsampling : 4:2:0
Bit depth : 8 bits
Scan type : Progressive
Bits/(Pixel*Frame) : 0.140
Stream size : 1.36 GiB (89%)
Title : Enigma
Writing library : x264 core 152 r2851 ba24899
Encoding settings : cabac=1 / ref=12 / deblock=1:-2:-2 / analyse=0x3:0x113 / me=umh / subme=10 / psy=1 / psy_rd=1.05:0.10 / mixed_ref=1 / me_range=32 / chroma_me=1 / trellis=2 / 8x8dct=1 / cqm=0 / deadzone=21,11 / fast_pskip=0 / chroma_qp_offset=-3 / threads=12 / lookahead_threads=3 / sliced_threads=0 / nr=0 / decimate=0 / interlaced=0 / bluray_compat=0 / constrained_intra=0 / bframes=10 / b_pyramid=2 / b_adapt=2 / b_bias=0 / direct=3 / weightb=1 / open_gop=0 / weightp=2 / keyint=240 / keyint_min=23 / scenecut=40 / intra_refresh=0 / rc_lookahead=40 / rc=2pass / mbtree=0 / bitrate=1982 / ratetol=1.0 / qcomp=0.60 / qpmin=0 / qpmax=51 / qpstep=4 / cplxblur=20.0 / qblur=0.5 / vbv_maxrate=50000 / vbv_bufsize=62500 / nal_hrd=none / filler=0 / ip_ratio=1.40 / pb_ratio=1.30 / aq=3:0.90
Language : English
Default : Yes
Forced : No
Color range : Limited
Color primaries : BT.709
Transfer characteristics : BT.709
Matrix coefficients : BT.709

Audio
ID : 2
Format : AC-3
Format/Info : Audio Coding 3
Mode extension : CM (complete main)
Format settings, Endianness : Big
Codec ID : A_AC3
Duration : 1 h 40 min
Bit rate mode : Constant
Bit rate : 192 kb/s
Channel(s) : 2 channels
Channel positions : Front: L R
Sampling rate : 48.0 kHz
Frame rate : 31.250 FPS (1536 spf)
Compression mode : Lossy
Stream size : 138 MiB (9%)
Title : MVO (Amedia)
Language : Russian
Default : Yes
Forced : No

Text #1
ID : 3
Format : UTF-8
Codec ID : S_TEXT/UTF8
Codec ID/Info : UTF-8 Plain Text
Language : Russian
Default : No
Forced : No

Text #2
ID : 4
Format : UTF-8
Codec ID : S_TEXT/UTF8
Codec ID/Info : UTF-8 Plain Text
Language : English
Default : No
Forced : No

Text #3
ID : 5
Format : UTF-8
Codec ID : S_TEXT/UTF8
Codec ID/Info : UTF-8 Plain Text
Title : SDH
Language : English
Default : No
Forced : No
Релиз от:

Автор релиза: pb.wtf



Скачать 451 градус по Фаренгейту через торрент http://b.radikal.ru/b36/1805/ee/ced509276115.jpg Скачать фильм 451 градус по Фаренгейту через торрент бесплантно в хорошем качестве Описание:В некоем тоталитарном обществе история переписывается, книги безжалостно сжигаются, а их чтение преследуется по закону. После ... 9.1 10 10
Info! Золотая раздача, скачанное не засчитывается.
Торрент: Зарегистрирован [2018-05-21 16:46] · скачан: 862 раз
Статус: √ проверено
Размер: 1.52 GB
Как cкачать? Как скачать 451 градус по Фаренгейту через торрент | qTorrent

28-11-2019 20:33  

Отключить всю рекламу на сайте

22-05-2018 05:50 451 градус по Фаренгейту Скачать торрент  

никудышная экранизация гениальной книги! по моему мнению, лучше эквилибриума, по этому мотиву, ни чего пока не сняли, афтору респект за труды!pb.wtf



22-05-2018 14:51 451 градус по Фаренгейту Скачать торрент  

аФтору? надеюсь это сарказм.pb.wtf



22-05-2018 14:52 451 градус по Фаренгейту Скачать торрент  

а книга отличная, согласен, теперь надо это творение глянуть, но судя по описанию опять все перевернули с ног на голову.pb.wtf



22-05-2018 19:20 451 градус по Фаренгейту Скачать торрент  

Жаль, думал полноценный сериал получится.pb.wtf



27-05-2018 19:23 451 градус по Фаренгейту Скачать торрент  

Да верное, эквилибриум намного лучше, этот фильм уровень обычного сериалаpb.wtf



    Дорогой пользователь! Огромная просьба, поблагодарите релизера, оцените раздачу и оставьте свои комментарий, если Вы скачали 451 градус по Фаренгейту через торрент бесплатно! Внесите свою лепту в развитие PiratBit!
    Комментировать посты могут только пользователи прошедшие не сложную регистрацию
    Показать сообщения:    

    451 градус по Фаренгейту через торрент
    Скачать бесплатно 451 градус по Фаренгейту
    451 градус по Фаренгейту скачать торрент
    451 градус по Фаренгейту смотреть онлайн
    Cкачать фильм 451 градус по Фаренгейту бесплатно
    451 градус по Фаренгейту скачать торрент в хорошем качестве
    451 градус по Фаренгейту смотреть онлайн бесплатно в хорошем качестве


    Вы не можете начинать темы
    Вы не можете отвечать на сообщения
    Вы не можете редактировать свои сообщения
    Вы не можете удалять свои сообщения
    Вы не можете голосовать в опросах
    Вы не можете прикреплять файлы к сообщениям
    Вы можете скачивать файлы