Ссылка на приватное зеркало нашего сайта всего за 1$. Внимание количество ограничено!!!

2 сезон

iTunes

1 сезон

1

2 сезон

2 сезон

iTunes

1 сезон

RePack

30

Ultimate

ВАЖНО

ИГРА 18+

pack

RePack

MK11
pack

Забери бонус

RePack

jed

!!Акция!!

Alien_Rage

RePack

fifa19

RePack

Assassins Creed: Odyssey

RePack

NEED FOR SPEED™ PAYBACK

4 сезон

9 сезон

Бесстыжие 9 сезон

Все сериалы

все сериалы на PB.wtf

RePack

FAR CRY 5
  

Тайная Влacть / Deep State / Сезон: 1 / Серии: 1-8 из 8 (Мэттью Паркхилл, Роберт Коннолли) [2018, драма, WEBRip 720p] MVO [Jaskier] pb.wtf

Тайная Влacть через торрент pb.wtf

Размер: 8.94 GB | Добавлен: 2 года 6 мес. назад | Торрент скачан:28 раз
Скачать  

22-05-2018 01:47 Тайная Влacть Скачать торрент  

Тайная Влacть / Deep State
Год выпуска: 2018
Страна: Великобритания
Жанр: драма
Продолжительность: x 00:50:00
Перевод: Профессиональный (многоголосый) | Jaskier
Субтитры: отсутствуют

Режиссер: Мэттью Паркхилл, Роберт Коннолли

rating

В ролях:

Марк Стронг, Джозеф Демпси, Карима Эдебайб, Лайн Рени, Анастасия Гриффит, Алистэр Петри, Амелия Баллмор, Кингсли Бен-Адир, Зубин Варла, Мел Райдо

Описание:

Действие сериала развертывается вокруг Макса Истона, бывшего спецагента, вынужденного вернуться на службу, чтобы отомстить за смерть своего сына. Он окажется в самом центре тайной войны, которую ведут спецслужбы, и заговора, нацеленного на то, чтобы извлечь максимальную прибыль от распространения хаоса на Ближнем Востоке. Эта история ставит вопрос, можем ли мы убежать от своего прошлого? Действительно ли существует такая вещь, как второй шанс?

Качество: WEBRip 720p
Формат: AVI

Видео: 1280x720 (16:9) | X264 | ~2275 kbps | 25.000 fps
Аудио#1 Rus: AC3, 48,0 КГц, 6 ch, 384 kbps avg
Аудио#2 Eng: AC3, 48,0 КГц, 6 ch, 384 kbps avg
скриншот   скриншот   скриншот  

Общее
Уникальный идентификатор : 110233023041392836231497533667476212826 (0x52EE1BA57787570C6751D92887738C5A)
Полное имя : F:\Deep.State Season 1 (WEBRip l 720p l Jaskier)\Deep.State.S01E01.WEBRip.720p.Jaskier.mkv
Формат : Matroska
Версия формата : Version 4 / Version 2
Размер файла : 1,08 Гбайт
Продолжительность : 50 м. 46 с.
Режим общего битрейта : Переменный
Общий поток : 3045 Кбит/сек
Дата кодирования : UTC 2018-05-09 14:07:56
Программа кодирования : mkvmerge v19.0.0 ('Brave Captain') 64-bit
Библиотека кодирования : libebml v1.3.5 + libmatroska v1.4.8

Видео
Идентификатор : 1
Формат : AVC
Формат/Информация : Advanced Video Codec
Профиль формата : High@L3.1
Параметр CABAC формата : Да
Параметр RefFrames формата : 5 кадров
Идентификатор кодека : V_MPEG4/ISO/AVC
Продолжительность : 50 м. 46 с.
Вид битрейта : Переменный
Битрейт : 2275 Кбит/сек
Максимальный битрейт : 4500 Кбит/сек
Ширина : 1280 пикселей
Высота : 720 пикселей
Соотношение сторон : 16:9
Режим частоты кадров : Постоянный
Частота кадров : 25,000 кадров/сек
Цветовое пространство : YUV
Субдискретизация насыщенности : 4:2:0
Битовая глубина : 8 бит
Тип развёртки : Прогрессивная
Бит/(Пиксели*Кадры) : 0.099
Размер потока : 826 Мбайт (75%)
Default : Да
Forced : Нет
Цветовой диапазон : Limited
Основные цвета : BT.709
Характеристики трансфера : BT.709
Коэффициенты матрицы : BT.709

Аудио #1
Идентификатор : 2
Формат : AC-3
Формат/Информация : Audio Coding 3
Расширение режима : CM (complete main)
Параметр Endianness формата : Big
Идентификатор кодека : A_AC3
Продолжительность : 50 м. 46 с.
Вид битрейта : Постоянный
Битрейт : 384 Кбит/сек
Каналы : 6 каналов
Расположение каналов : Front: L C R, Side: L R, LFE
Частота : 48,0 КГц
Частота кадров : 31,250 кадров/сек (1536 spf)
Метод сжатия : С потерями
Размер потока : 139 Мбайт (13%)
Заголовок : Jaskier
Язык : Russian
Default : Да
Forced : Нет

Аудио #2
Идентификатор : 3
Формат : AC-3
Формат/Информация : Audio Coding 3
Расширение режима : CM (complete main)
Параметр Endianness формата : Big
Идентификатор кодека : A_AC3
Продолжительность : 50 м. 46 с.
Вид битрейта : Постоянный
Битрейт : 384 Кбит/сек
Каналы : 6 каналов
Расположение каналов : Front: L C R, Side: L R, LFE
Частота : 48,0 КГц
Частота кадров : 31,250 кадров/сек (1536 spf)
Метод сжатия : С потерями
Размер потока : 139 Мбайт (13%)
Язык : English
Default : Нет
Forced : Нет

Когда раздача ведётся путём добавления новых серий, при каждом добавлении создётся новый торрент. Чтобы начать докачку новой серии, пользователям необходимо сделать следующее:
(1) остановить скачивание,
(2) удалить старый торрент у себя из клиента (старые серии удалять не надо),
(3) скачать новый торрент и запустить его у себя в клиенте вместо старого, при этом указать клиенту путь в старую папку, куда и должно происходить скачивание новых серий.
Ваш клиент при этом должен произвести хеширование (проверку) старой папки (если не производит сам - помогите ему сделать это), и будет докачивать только те серии, которых у вас ещё нет. Старые серии при этом не удаляются, а продолжают раздаваться!
Eсли вы уже удалили старые серии, то предотвратить повторную закачку старых серий можно, отжав галочку в соответсвующих местах при запуске нового торрента. По возможности, желательно не удалять старые серии как можно дольше, чтобы релизёр не столько продолжал раздавать старые серии, а смог сконцентрироваться на новых.
pb.wtf



Скачать Тайная Влacть через торрент http://pic1.kartinco.top/images/11/cr66s.jpg Скачать фильм Тайная Влacть через торрент бесплантно в хорошем качестве Описание: Действие сериала развертывается вокруг Макса Истона, бывшего спецагента, вынужденного вернуться на службу, чтобы отомстить за ... 10 10 6
Торрент: Зарегистрирован [2018-05-27 14:07] · скачан: 28 раз
Статус: √ проверено
Размер: 8.94 GB
Как cкачать? Как скачать Тайная Влacть через торрент | qTorrent

% Раздел Тема Автор DL S | L
Зарубежные сериалы [ 14.32 GB ] Тайная Влacть / Deep State / Сезон: 2 / Серии: 1-8 из 8 [2019 WEBRip 720p] [MVO] killermax2013 Скачать
1 | 0

28-11-2019 20:33  

Отключить всю рекламу на сайте

    Дорогой пользователь! Огромная просьба, поблагодарите релизера, оцените раздачу и оставьте свои комментарий, если Вы скачали Тайная Влacть через торрент бесплатно! Внесите свою лепту в развитие PiratBit!
    Комментировать посты могут только пользователи прошедшие не сложную регистрацию
    Показать сообщения:    

    Тайная Влacть через торрент
    Скачать бесплатно Тайная Влacть
    Тайная Влacть скачать торрент
    Тайная Влacть смотреть онлайн
    Cкачать фильм Тайная Влacть бесплатно
    Тайная Влacть скачать торрент в хорошем качестве
    Тайная Влacть смотреть онлайн бесплатно в хорошем качестве


    Вы не можете начинать темы
    Вы не можете отвечать на сообщения
    Вы не можете редактировать свои сообщения
    Вы не можете удалять свои сообщения
    Вы не можете голосовать в опросах
    Вы не можете прикреплять файлы к сообщениям
    Вы можете скачивать файлы