Ссылка на приватное зеркало нашего сайта всего за 1$. Внимание количество ограничено!!!

2 сезон

iTunes

1 сезон

1

2 сезон

2 сезон

iTunes

1 сезон

RePack

30

Новинка

ВАЖНО

ИГРА 18+

pack

RePack

MK11
pack

Забери бонус

RePack

jed

!!Акция!!

Alien_Rage

RePack

fifa19

RePack

Assassins Creed: Odyssey

RePack

NEED FOR SPEED™ PAYBACK

4 сезон

9 сезон

Бесстыжие 9 сезон

Все сериалы

все сериалы на PB.wtf

RePack

FAR CRY 5
  

Незнакомцы: Жестокие игры / The Strangers: Prey at Night (Йоханнес Робертс) [2018, ужасы, WEB-DL 720p] DUB [iTunes] pb.wtf

Незнакомцы: Жестокие игры через торрент pb.wtf

Размер: 2.67 GB | Добавлен: 2 года 6 мес. назад | Торрент скачан:177 раз
Скачать  

22-05-2018 01:52 Незнакомцы: Жестокие игры Скачать торрент  

Незнакомцы: Жестокие игры / The Strangers: Prey at NightГод выпуска: 2018
Страна: Канада
Жанр: ужасы
Продолжительность: 01:25:14
Перевод: Дублированный | iTunes
Субтитры: отсутствуют

Режиссер: Йоханнес Робертс

rating

В ролях:

Кристина Хендрикс, Бэйли Мэдисон, Эмма Белломи, Мартин Хендерсон, Льюис Пуллман, Дэмиэн Маффей, Лиа Энзлин, Леа Робертс, Престон Садлеир,

Описание:

Американская семья отправляется в небольшое путешествие - навестить родственников, которые живут в кемпинге. Но автомобильный лагерь оказывается пуст. Под покровом ночи появляются трое психопатов в масках, цель которых не грабить или убивать, а выяснить, какой у каждого из членов семьи личный предел жажды жизни...​

Качество: WEB-DL 720p
Формат: MKV

Видео: MPEG-4 AVC, 4101 Кбит/с, 1280x530
Аудио: Русский (AC3, 6 ch, 384 Кбит/с)
скриншот   скриншот   скриншот  

Общее
Уникальный идентификатор : 181437554506646058282609558205887184426 (0x887F9A17D3C2D55DAF398A07963C7E2A)
Полное имя : F:\The.Strangers.Prey.at.Night.2O18.D.WEB-DL.72Op.mkv
Формат : Matroska
Версия формата : Version 2
Размер файла : 2,67 Гбайт
Продолжительность : 1 ч. 25 м.
Общий поток : 4486 Кбит/сек
Дата кодирования : UTC 2018-05-21 19:07:52
Программа кодирования : mkvmerge v8.3.0 ('Over the Horizon') 64bit
Библиотека кодирования : libebml v1.3.1 + libmatroska v1.4.2

Видео
Идентификатор : 1
Формат : AVC
Формат/Информация : Advanced Video Codec
Профиль формата : Main@L3.1
Параметр CABAC формата : Нет
Параметр RefFrames формата : 2 кадра
Идентификатор кодека : V_MPEG4/ISO/AVC
Продолжительность : 1 ч. 25 м.
Битрейт : 4101 Кбит/сек
Ширина : 1280 пикселей
Высота : 530 пикселей
Соотношение сторон : 2,40:1
Режим частоты кадров : Постоянный
Частота кадров : 23,976 (24000/1001) кадра/сек
Цветовое пространство : YUV
Субдискретизация насыщенности : 4:2:0
Битовая глубина : 8 бит
Тип развёртки : Прогрессивная
Бит/(Пиксели*Кадры) : 0.247
Размер потока : 2,39 Гбайт (89%)
Язык : English
Default : Да
Forced : Нет
Цветовой диапазон : Limited
Основные цвета : BT.709
Характеристики трансфера : BT.709
Коэффициенты матрицы : BT.709

Аудио
Идентификатор : 2
Формат : AC-3
Формат/Информация : Audio Coding 3
Расширение режима : CM (complete main)
Параметр Endianness формата : Big
Идентификатор кодека : A_AC3
Продолжительность : 1 ч. 25 м.
Вид битрейта : Постоянный
Битрейт : 384 Кбит/сек
Каналы : 6 каналов
Расположение каналов : Front: L C R, Side: L R, LFE
Частота : 48,0 КГц
Частота кадров : 31,250 кадров/сек (1536 spf)
Метод сжатия : С потерями
Размер потока : 234 Мбайт (9%)
Язык : Russian
Default : Да
Forced : Нет

pb.wtf



Скачать Незнакомцы: Жестокие игры через торрент http://img12.lostpic.net/2018/03/18/fac0d93fba2ac0bdfcaf22449b912fad.jpg Скачать фильм Незнакомцы: Жестокие игры через торрент бесплантно в хорошем качестве Описание: Американская семья отправляется в небольшое путешествие - навестить родственников, которые живут в кемпинге. Но автомобильный ... 8.2 10 5
Торрент: Зарегистрирован [2018-05-22 01:52] · скачан: 177 раз
Статус: √ проверено
Размер: 2.67 GB
Как cкачать? Как скачать Незнакомцы: Жестокие игры через торрент | qTorrent

% Раздел Тема Автор DL S | L
Фильмы 2018 [DVDrip, WEB-DLRip, HDrip] (DUB, MVO) [ 1.45 GB ] Незнакомцы: Жестокие игры / The Strangers: Prey at Night [2018 BDRip] DUB [ BD RUS] bober100 Скачать
1 | 0
Фильмы 2018 [DVDrip, WEB-DLRip, HDrip] (DUB, MVO) [ 746 MB ] Незнакомцы: Жестокие игры / The Strangers: Prey at Night [2018 BDRip-AVC] DUB [ BD RUS] bober100 Скачать
1 | 0
Фильмы 2018 [DVDrip, WEB-DLRip, HDrip] (DUB, MVO) [ 1.56 GB ] Незнакомцы: Жестокие игры / The Strangers: Prey at Night [2018 BDRip-AVC] - ExKinoRay Enigma2010 Скачать
2 | 0
Фильмы [HD 720p, 1080p] (Хороший звук DUB, MVO) [ 5.26 GB ] Незнакомцы: Жестокие игры / The Strangers: Prey at Night [2018 BDRip 720p] DUB [] bober100 Скачать
1 | 0
Фильмы (Blu-ray, BD-Remux, HDDVD) [ 25.49 GB ] Незнакомцы: Жестокие игры / The Strangers: Prey at Night [2018 BD Remux 1080p] [US Transfer] DUB [] bober100 Скачать
1 | 0
Фильмы (Blu-ray, BD-Remux, HDDVD) [ 18.48 GB ] Незнакомцы: Жестокие игры / The Strangers: Prey at Night [2018 Blu-Ray 1080p] [RUS Transfer] DUB [] bober100 Скачать
1 | 0
Фильмы [HD 720p, 1080p] (Хороший звук DUB, MVO) [ 9.53 GB ] Незнакомцы: Жестокие игры / The Strangers: Prey at Night [2018 BDRip 1080p] DUB [] bober100 Скачать
1 | 0

28-11-2019 20:33  

Отключить всю рекламу на сайте

22-05-2018 06:59 Незнакомцы: Жестокие игры Скачать торрент  

в последнее время Канада как из пулемета лепит фильмыpb.wtf



23-05-2018 03:31 Незнакомцы: Жестокие игры Скачать торрент  

Нормальный такой фильм 4 из 5 автору спс.pb.wtf



26-05-2018 13:51 Незнакомцы: Жестокие игры Скачать торрент  

неплохо.любителям жанра понравится.pb.wtf



    Дорогой пользователь! Огромная просьба, поблагодарите релизера, оцените раздачу и оставьте свои комментарий, если Вы скачали Незнакомцы: Жестокие игры через торрент бесплатно! Внесите свою лепту в развитие PiratBit!
    Комментировать посты могут только пользователи прошедшие не сложную регистрацию
    Показать сообщения:    

    Незнакомцы: Жестокие игры через торрент
    Скачать бесплатно Незнакомцы: Жестокие игры
    Незнакомцы: Жестокие игры скачать торрент
    Незнакомцы: Жестокие игры смотреть онлайн
    Cкачать фильм Незнакомцы: Жестокие игры бесплатно
    Незнакомцы: Жестокие игры скачать торрент в хорошем качестве
    Незнакомцы: Жестокие игры смотреть онлайн бесплатно в хорошем качестве


    Вы не можете начинать темы
    Вы не можете отвечать на сообщения
    Вы не можете редактировать свои сообщения
    Вы не можете удалять свои сообщения
    Вы не можете голосовать в опросах
    Вы не можете прикреплять файлы к сообщениям
    Вы можете скачивать файлы