2 сезон

iTunes

MVO

1

2 сезон

iTunes

iTunes

1 сезон

RePack

30

Новинка

ВАЖНО

ИГРА 18+

pack

RePack

MK11
pack

Легкие деньги

RePack

jed

RePack

fifa19

RePack

RDR2

RePack

NEED FOR SPEED™ PAYBACK

4 сезон

9 сезон

Бесстыжие 9 сезон

Все сериалы

все сериалы на PB.wtf

RePack

FAR CRY 5

Anonymous, добрый вечер, мы не успеваем собрать деньги на оплату серверов за декабрь и январь, помогите нам пожалуйста в это трудное время. В качестве благодарности мы отключим Вам всю рекламу на сайте (укажите свой ник в строку Ваше имя)!

×
  
Magnet ссылка

Я сражаюсь с великанами / I Kill Giants (Андерс Вальтер Хансен) [2017, фэнтези, триллер, драма, BDRip-AVC] DUB [iTunes] pb.wtf

Я сражаюсь с великанами через торрент pb.wtf

Размер: 1.62 GB | Добавлен: 2 года 8 мес. назад | Торрент скачан:179 раз
Скачать  

22-05-2018 06:47 Я сражаюсь с великанами Скачать торрент  

Я сражаюсь с великанами / I Kill Giants
Год выпуска: 2017
Страна: Бельгия, Великобритания, США
Жанр: фэнтези, триллер, драма
Продолжительность: 01:46:23
Перевод: Дублированный | iTunes
Субтитры: Русские, Английские (full, SDH)

Режиссер: Андерс Вальтер Хансен

rating


В ролях:

Зои Салдана, Имоджен Путс, Дженнифер Эль, Ноэль Кларк, Мэдисон Вульф, Рори Джексон, Сиара О Каллаган, Сидни Вэйд, Эйдин Уайлд, Аманда Стюарт

Описание:

Барбара Торсон - особенная, ее уникальный талант - это возможность видеть мир великанов. И этот мир угрожает людям. Барбаре никто не верит, но она единственная, кто может спасти человечество от исчезновения. Она объявляет великанам войну и готовится к главному сражению в своей жизни.

Качество: BDRip-AVC
Формат: MKV

Видео: 1024x428 (2.40:1), 23,976 fps, x264 ~1 350 kbps avg, 0.144 bit/pixe
Аудио#1: 48 kHz, AC3 Dolby Digital, 3/2 (L,C,R,l,r) + LFE ch, ~384.00 kbps avg | RUS (iTunes)
Аудио#2: 48 kHz, AC3 Dolby Digital, 3/2 (L,C,R,l,r) + LFE ch, ~448.00 kbps avg | ENG
скриншот   скриншот   скриншот   скриншот  

Общее
Уникальный идентификатор : 170326771195781236719419873716961312493 (0x8023BE2E8AC1B6A4B033FD1BC85C7EED)
Полное имя : E:OlLanDGroupI.Kill.Giants.2017.BDRip(AVC).OlLanDGroup.mkv
Формат : Matroska
Версия формата : Version 4 / Version 2
Размер файла : 1,62 Гбайт
Продолжительность : 1 ч. 46 м.
Общий поток : 2183 Кбит/сек
Название фильма : I.Kill.Giants.2017 #TorpedoUK#
Дата кодирования : UTC 2018-05-22 06:09:40
Программа кодирования : mkvmerge v8.3.0 ('Over the Horizon') 64bit
Библиотека кодирования : libebml v1.3.1 + libmatroska v1.4.2

Видео
Идентификатор : 1
Формат : AVC
Формат/Информация : Advanced Video Codec
Профиль формата : High@L4.1
Параметр CABAC формата : Да
Параметр ReFrames формата : 10 кадров
Идентификатор кодека : V_MPEG4/ISO/AVC
Продолжительность : 1 ч. 46 м.
Битрейт : 1350 Кбит/сек
Ширина : 1024 пикселя
Высота : 428 пикселей
Соотношение сторон : 2,40:1
Режим частоты кадров : Постоянный
Частота кадров : 23,976 (24000/1001) кадра/сек
Цветовое пространство : YUV
Субдискретизация насыщенности : 4:2:0
Битовая глубина : 8 бит
Тип развёртки : Прогрессивная
Бит/(Пиксели*Кадры) : 0.128
Размер потока : 1,00 Гбайт (62%)
Библиотека кодирования : x264 core 146 r2538 121396c
Настройки программы : cabac=1 / ref=10 / deblock=1:-3:-3 / analyse=0x3:0x133 / me=umh / subme=11 / psy=1 / psy_rd=0.97:0.07 / mixed_ref=1 / me_range=48 / chroma_me=1 / trellis=2 / 8x8dct=1 / cqm=0 / deadzone=21,11 / fast_pskip=1 / chroma_qp_offset=-3 / threads=6 / lookahead_threads=1 / sliced_threads=0 / nr=0 / decimate=1 / interlaced=0 / bluray_compat=0 / constrained_intra=0 / bframes=10 / b_pyramid=2 / b_adapt=2 / b_bias=0 / direct=3 / weightb=1 / open_gop=0 / weightp=2 / keyint=240 / keyint_min=23 / scenecut=40 / intra_refresh=0 / rc_lookahead=40 / rc=2pass / mbtree=0 / bitrate=1350 / ratetol=1.0 / qcomp=0.60 / qpmin=0 / qpmax=69 / qpstep=4 / cplxblur=20.0 / qblur=0.5 / vbv_maxrate=50000 / vbv_bufsize=62500 / nal_hrd=none / filler=0 / ip_ratio=1.40 / pb_ratio=1.30 / aq=1:1.00
Язык : English
Default : Да
Forced : Нет

Аудио #1
Идентификатор : 2
Формат : AC-3
Формат/Информация : Audio Coding 3
Расширение режима : CM (complete main)
Параметр Endianness формата : Big
Идентификатор кодека : A_AC3
Продолжительность : 1 ч. 46 м.
Вид битрейта : Постоянный
Битрейт : 384 Кбит/сек
Каналы : 6 каналов
Расположение каналов : Front: L C R, Side: L R, LFE
Частота : 48,0 КГц
Частота кадров : 31,250 кадров/сек (1536 spf)
Битовая глубина : 16 бит
Метод сжатия : С потерями
Размер потока : 292 Мбайт (18%)
Заголовок : iTunes
Язык : Russian
Default : Да
Forced : Нет

Аудио #2
Идентификатор : 3
Формат : AC-3
Формат/Информация : Audio Coding 3
Расширение режима : CM (complete main)
Параметр Endianness формата : Big
Идентификатор кодека : A_AC3
Продолжительность : 1 ч. 46 м.
Вид битрейта : Постоянный
Битрейт : 448 Кбит/сек
Каналы : 6 каналов
Расположение каналов : Front: L C R, Side: L R, LFE
Частота : 48,0 КГц
Частота кадров : 31,250 кадров/сек (1536 spf)
Битовая глубина : 16 бит
Метод сжатия : С потерями
Размер потока : 341 Мбайт (21%)
Заголовок : Original
Язык : English
Default : Нет
Forced : Нет

Текст #1
Идентификатор : 4
Формат : UTF-8
Идентификатор кодека : S_TEXT/UTF8
Идентификатор кодека/Информация : UTF-8 Plain Text
Продолжительность : 1 ч. 32 м.
Битрейт : 65 бит/сек
Count of elements : 895
Размер потока : 44,2 Кбайт (0%)
Заголовок : Full [v.1]
Язык : Russian
Default : Нет
Forced : Нет

Текст #2
Идентификатор : 5
Формат : UTF-8
Идентификатор кодека : S_TEXT/UTF8
Идентификатор кодека/Информация : UTF-8 Plain Text
Продолжительность : 1 ч. 34 м.
Битрейт : 65 бит/сек
Count of elements : 905
Размер потока : 45,5 Кбайт (0%)
Заголовок : Full [v.2]
Язык : Russian
Default : Нет
Forced : Нет

Текст #3
Идентификатор : 6
Формат : UTF-8
Идентификатор кодека : S_TEXT/UTF8
Идентификатор кодека/Информация : UTF-8 Plain Text
Продолжительность : 1 ч. 36 м.
Битрейт : 39 бит/сек
Count of elements : 1055
Размер потока : 27,9 Кбайт (0%)
Заголовок : Full
Язык : English
Default : Нет
Forced : Нет

Меню
00:00:00.000 : en:00:00:00.000
00:08:40.353 : en:00:08:40.353
00:16:09.802 : en:00:16:09.802
00:20:35.609 : en:00:20:35.609
00:32:25.318 : en:00:32:25.318
00:51:53.819 : en:00:51:53.819
01:04:16.144 : en:01:04:16.144
01:16:04.977 : en:01:16:04.977
01:23:37.012 : en:01:23:37.012
01:37:49.906 : en:01:37:49.906

pb.wtf



Скачать Я сражаюсь с великанами через торрент http://lostpix.com/img/2018-05/05/r5w8fm3fvni19o6huanztd12y.png Скачать фильм Я сражаюсь с великанами через торрент бесплантно в хорошем качестве Описание: Барбара Торсон - особенная, ее уникальный талант - это возможность видеть мир великанов. И этот мир угрожает людям. Барбаре никто ... 10 10 4
Торрент: Зарегистрирован [2018-05-22 06:47] · скачан: 179 раз
Статус: √ проверено
Размер: 1.62 GB
Как cкачать? Как скачать Я сражаюсь с великанами через торрент | UTorrent

% Раздел Тема Автор DL S | L
Фильмы 2017 [DVDrip, WEB-DLRip, HDrip] (DUB, MVO) [ 1.41 GB ] Я сражаюсь с великанами / I Kill Giants [2017 BDRip] - Twi7ter Скачать
2 | 0
Фильмы (Blu-ray, BD-Remux, HDDVD) [ 16.22 GB ] Я сражаюсь с великанами / I Kill Giants [2017 BDRemux 1080р] - -Lexx- Скачать
1 | 0
Фильмы [HD 720p, 1080p] (Хороший звук DUB, MVO) [ 7.22 GB ] Я сражаюсь с великанами / I Kill Giants [2017 BDRip 1080p] bober100 Скачать
1 | 0
Фильмы [HD 720p, 1080p] (Хороший звук DUB, MVO) [ 3.72 GB ] Я сражаюсь с великанами / I Kill Giants [2017 BDRip 720p] bober100 Скачать
1 | 0
Фильмы 2017 [DVDrip, WEB-DLRip, HDrip] (DUB, MVO) [ 745 MB ] Я сражаюсь с великанами / I Kill Giants [2017 BDRip] bober100 Скачать
1 | 0
Фильмы 2017 [DVDrip, WEB-DLRip, HDrip] (DUB, MVO) [ 1.41 GB ] Я сражаюсь с великанами / I Kill Giants [2017 BDRip] bober100 Скачать
1 | 0
Фильмы 2017 [DVDrip, WEB-DLRip, HDrip] (DUB, MVO) [ 2.05 GB ] Я сражаюсь с великанами / I Kill Giants [2017 WEB-DLRip] bober100 Скачать
1 | 0

28-11-2019 20:33  

Отключить всю рекламу на сайте

    Дорогой пользователь! Огромная просьба, поблагодарите релизера, оцените раздачу и оставьте свои комментарий, если Вы скачали Я сражаюсь с великанами через торрент бесплатно! Внесите свою лепту в развитие PiratBit!
    Комментировать посты могут только пользователи прошедшие не сложную регистрацию
    Показать сообщения:    

    Я сражаюсь с великанами через торрент
    Скачать бесплатно Я сражаюсь с великанами
    Я сражаюсь с великанами скачать торрент
    Я сражаюсь с великанами смотреть онлайн
    Cкачать фильм Я сражаюсь с великанами бесплатно
    Я сражаюсь с великанами скачать торрент в хорошем качестве
    Я сражаюсь с великанами смотреть онлайн бесплатно в хорошем качестве


    Вы не можете начинать темы
    Вы не можете отвечать на сообщения
    Вы не можете редактировать свои сообщения
    Вы не можете удалять свои сообщения
    Вы не можете голосовать в опросах
    Вы не можете прикреплять файлы к сообщениям
    Вы можете скачивать файлы