Ссылка на приватное зеркало всего за 1$. Внимание количество ограничено!!!

OK

1+1

iTunes

мы

OK

1

WEB-DLRip

Джокер

Пифагор

Ведьмак / The Witcher сериал

iTunes

ПШазам

ОК

Оно 2

iTunes

30
pack

Вам бонус

ВАЖНО

!!Акция!!

Alien_RageХит недели

RePack

Resident Evil 21

ИГРА 18+

pack

RePack

jed

RePack

fifa19

RePack

Assassins Creed: Odyssey

RePack

NEED FOR SPEED™ PAYBACK

4 сезон

9 сезон

Бесстыжие 9 сезон

Все сериалы

все сериалы на PB.wtf

RePack

FAR CRY 5
  

Я - Вильям / Jeg er William (Йонас Элмер) [2017 г., Семейный, WEB-DL 720p] MVO ["Синема УС"] pb.wtf

Я - Вильям через торрент pb.wtf

Размер: 2.89 GB | Добавлен: 1 год 8 мес. назад | Торрент скачан:18 раз
Скачать  

22-05-2018 12:32 Я - Вильям Скачать торрент  

Я - Вильям / Jeg er WilliamГод выпуска: 2017
Страна: Дания
Жанр: Семейный
Продолжительность: 01:25:06
Перевод: Любительский (многоголосый) | "Синема УС"
Субтитры: отсутствуют

Режиссер: Йонас Элмер

rating

В ролях:

Александр Магнусон, Расмус Бьерг, Стинн Хенриксен, Якоб Агермосе Педерсен, Питер Кролл, Грегер Федершпиль, Фердинанд Бах, Юлий Грин Фольдер, Амина Арраха

Описание:

Вильям живёт со своим дядей Нильсом. Его отец умер, а мать психически неуравновешена. Нильс рано ушёл на пенсию и проводит свой день, покупая и продавая вещи по выгодной цене. Нильс оказывается должен деньги неким гангстерам, и они хотят, чтобы их долг был возвращён.

Качество: WEB-DL 720p
Формат: MKV

Видео: h.264, 4 467 kb/s, 1280x690
Аудио: Русский (AC3, 2 ch, 384 Кбит/с)
скриншот  скриншот  скриншот  

Общее
Уникальный идентификатор : 219474064002043157160774105164075172882 (0xA51D2ACCD1A87594B42C79559D1F0412)
Полное имя : F:\Jeg er William.2O18.P.WEB-DL.72Op_KOSHARA.mkv
Формат : Matroska
Версия формата : Version 2
Размер файла : 2,89 Гбайт
Продолжительность : 1 ч. 25 м.
Режим общего битрейта : Переменный
Общий поток : 4853 Кбит/сек
Дата кодирования : UTC 2018-05-16 20:13:24
Программа кодирования : mkvmerge v8.3.0 ('Over the Horizon') 64bit
Библиотека кодирования : libebml v1.3.1 + libmatroska v1.4.2

Видео
Идентификатор : 1
Формат : AVC
Формат/Информация : Advanced Video Codec
Профиль формата : High@L4.1
Параметр CABAC формата : Да
Параметр RefFrames формата : 4 кадра
Идентификатор кодека : V_MPEG4/ISO/AVC
Продолжительность : 1 ч. 25 м.
Вид битрейта : Переменный
Битрейт : 4467 Кбит/сек
Максимальный битрейт : 5000 Кбит/сек
Ширина : 1280 пикселей
Высота : 690 пикселей
Соотношение сторон : 1,85:1
Режим частоты кадров : Постоянный
Частота кадров : 23,976 (24000/1001) кадра/сек
Стандарт вещания : Component
Цветовое пространство : YUV
Субдискретизация насыщенности : 4:2:0
Битовая глубина : 8 бит
Тип развёртки : Прогрессивная
Бит/(Пиксели*Кадры) : 0.206
Размер потока : 2,60 Гбайт (90%)
Default : Да
Forced : Нет
Цветовой диапазон : Limited
Основные цвета : BT.709
Характеристики трансфера : BT.709
Коэффициенты матрицы : BT.709

Аудио
Идентификатор : 2
Формат : AC-3
Формат/Информация : Audio Coding 3
Расширение режима : CM (complete main)
Параметр Endianness формата : Big
Идентификатор кодека : A_AC3
Продолжительность : 1 ч. 25 м.
Вид битрейта : Постоянный
Битрейт : 384 Кбит/сек
Каналы : 2 канала
Расположение каналов : Front: L R
Частота : 48,0 КГц
Частота кадров : 31,250 кадров/сек (1536 spf)
Метод сжатия : С потерями
Размер потока : 234 Мбайт (8%)
Default : Да
Forced : Нет

pb.wtf



Скачать Я - Вильям через торрент http://img12.lostpic.net/2018/05/22/448815067648844fc7d7d2ee1920d024.jpg Скачать фильм Я - Вильям через торрент бесплантно в хорошем качестве Описание: Вильям живёт со своим дядей Нильсом. Его отец умер, а мать психически неуравновешена. Нильс рано ушёл на пенсию и проводит свой ... 10 10 2
Торрент: Зарегистрирован [2018-05-22 12:32] · скачан: 18 раз
Статус: T временная
Размер: 2.89 GB
Как cкачать? Как скачать Я - Вильям через торрент | qTorrent

% Раздел Тема Автор DL S | L
T Фильмы (мультфильмы) cо спонсором показа (Новинки AVI/MKV) [ 1.37 GB ] Я - Вильям / Jeg er William [2017 WEB-DLRip] MVO ["Синема УС"] bober100 Скачать
1 | 0

28-11-2019 20:33  

Отключить всю рекламу на сайте

    Дорогой пользователь! Огромная просьба, поблагодарите релизера, оцените раздачу и оставьте свои комментарий, если Вы скачали Я - Вильям через торрент бесплатно! Внесите свою лепту в развитие PiratBit!
    Комментировать посты могут только пользователи прошедшие не сложную регистрацию
    Показать сообщения:    

    Я - Вильям через торрент
    Скачать бесплатно Я - Вильям
    Я - Вильям скачать торрент
    Я - Вильям смотреть онлайн
    Cкачать фильм Я - Вильям бесплатно
    Я - Вильям скачать торрент в хорошем качестве
    Я - Вильям смотреть онлайн бесплатно в хорошем качестве


    Вы не можете начинать темы
    Вы не можете отвечать на сообщения
    Вы не можете редактировать свои сообщения
    Вы не можете удалять свои сообщения
    Вы не можете голосовать в опросах
    Вы не можете прикреплять файлы к сообщениям
    Вы можете скачивать файлы