Ссылка на приватное зеркало нашего сайта всего за 1$. Внимание количество ограничено!!!

2 сезон

iTunes

1 сезон

1

2 сезон

2 сезон

iTunes

1 сезон

RePack

30

Ultimate

ВАЖНО

ИГРА 18+

pack

RePack

MK11
pack

Забери бонус

RePack

jed

!!Акция!!

Alien_Rage

RePack

fifa19

RePack

Assassins Creed: Odyssey

RePack

NEED FOR SPEED™ PAYBACK

4 сезон

9 сезон

Бесстыжие 9 сезон

Все сериалы

все сериалы на PB.wtf

RePack

FAR CRY 5
  

Агенты Щ.И.Т. / Marvel's Agents of S.H.I.E.L.D. / Сезон: 5 / Серии: 1-22 из 22 (Джесси Бокко, Милан Чейлов) [2017, Боевик, фантастика, драма, WEB-DL 1080p] MVO [LostFilm] pb.wtf

Агенты Щ.И.Т. через торрент pb.wtf

Раздают: 1 [ 59 KB/s ]
Размер: 39.52 GB | Добавлен: 2 года 6 мес. назад | Торрент скачан:100 раз
Скачать  

22-05-2018 12:48 Агенты Щ.И.Т. Скачать торрент  


◈ Агенты Щ.И.Т. / Marvel's Agents of S.H.I.E.L.D. ◈
Информация о фильме:


Название: Агенты «Щ.И.Т.»
Оригинальное название: Marvel's Agents of S.H.I.E.L.D.
Год выпуска: 2017
Страна: США
Жанр: Боевик, фантастика, драма
Продолжительность: ~ 00:43:00 серия
Перевод: Профессиональный многоголосый | LostFilm
Субтитры: отсутствуют

Режиссер: Джесси Бокко, Милан Чейлов, Роксанн Доусон, Дэвид Стрейтон, Джосс Уидон, Винс Мисиано

rating

В ролях:

Кларк Грегг, Минг-На, Бретт Далтон, Хлоя Беннет, Йен де Кестекер, Элизабет Хенстридж, Дж. Аугуст Ричардс, Шеннон Лусио, Рон Гласс, Роберт Дж. Стефенсон, Коби Смолдерс, Аарон Бер, Николь Дж. Батлер, Сара Дюмон, Леонор Варела, Иэн Харт, Дэвид Конрад

Описание:

Действия сериала разворачиваются после событий фильма «Мстители». Агент Фил Колсон возвращается в правоохранительную организацию под названием Щ. И. Т., собрав небольшую команду профессионалов, он начинает работу над новыми делами, которые порой бывают очень странными.

Информация о файле:

Качество: WEB-DL 1080p
Формат: MKV

Видео: MPEG-4 AVC | ~ 5 300 kbps | 1920x1080 (16:9) | 23.976
Аудио#1 Rus: AC3 | 48.0 KHz | 2 ch | 384 kbps
Аудио#2 Eng: AC3 | 48.0 KHz | 2 ch | 384 kbps
скриншот   скриншот   скриншот   скриншот   скриншот   скриншот  

Общее
Уникальный идентификатор : 224018674030910434155413037586131616900 (0xA8886D5FB80D86B98FDC12FECB0E8484)
Полное имя : F:\Marvels.Agents.of.S.H.I.E.L.D (Season 5) 1080\Marvels.Agents.of.S.H.I.E.L.D.S05E01.1080p.rus.LostFilm.TV.mkv
Формат : Matroska
Версия формата : Version 4 / Version 2
Размер файла : 1,81 Гбайт
Продолжительность : 43 м. 8 с.
Общий поток : 6006 Кбит/сек
Дата кодирования : UTC 2017-12-03 17:55:33
Программа кодирования : mkvmerge v9.5.0 ('Quiet Fire') 64bit
Библиотека кодирования : libebml v1.3.4 + libmatroska v1.4.5

Видео
Идентификатор : 1
Формат : AVC
Формат/Информация : Advanced Video Codec
Профиль формата : High@L4.1
Параметр CABAC формата : Да
Параметр RefFrames формата : 4 кадра
Идентификатор кодека : V_MPEG4/ISO/AVC
Продолжительность : 43 м. 8 с.
Битрейт : 5242 Кбит/сек
Ширина : 1920 пикселей
Высота : 1080 пикселей
Соотношение сторон : 16:9
Режим частоты кадров : Постоянный
Частота кадров : 23,976 (24000/1001) кадра/сек
Частота кадров в оригинале : 23,976 (23976/1000) кадра/сек
Цветовое пространство : YUV
Субдискретизация насыщенности : 4:2:0
Битовая глубина : 8 бит
Тип развёртки : Прогрессивная
Бит/(Пиксели*Кадры) : 0.105
Размер потока : 1,58 Гбайт (87%)
Библиотека кодирования : x264 core 112 r1834 a51816a
Настройки программы : cabac=1 / ref=4 / deblock=1:-3:-2 / analyse=0x3:0x113 / me=hex / subme=7 / psy=1 / psy_rd=1.00:0.00 / mixed_ref=1 / me_range=16 / chroma_me=1 / trellis=1 / 8x8dct=1 / cqm=0 / deadzone=21,11 / fast_pskip=1 / chroma_qp_offset=-2 / threads=6 / sliced_threads=0 / nr=0 / decimate=1 / interlaced=0 / constrained_intra=0 / bframes=5 / b_pyramid=2 / b_adapt=1 / b_bias=0 / direct=1 / weightb=1 / open_gop=0 / weightp=2 / keyint=250 / keyint_min=25 / scenecut=40 / intra_refresh=0 / rc_lookahead=40 / rc=2pass / mbtree=1 / bitrate=5242 / ratetol=1.0 / qcomp=0.60 / qpmin=0 / qpmax=51 / qpstep=4 / cplxblur=20.0 / qblur=0.5 / vbv_maxrate=10000 / vbv_bufsize=256000 / ip_ratio=1.40 / aq=1:1.00 / nal_hrd=none
Default : Да
Forced : Нет

Аудио #1
Идентификатор : 2
Формат : AC-3
Формат/Информация : Audio Coding 3
Расширение режима : CM (complete main)
Параметр Endianness формата : Big
Идентификатор кодека : A_AC3
Продолжительность : 43 м. 8 с.
Вид битрейта : Постоянный
Битрейт : 384 Кбит/сек
Каналы : 2 канала
Расположение каналов : Front: L R
Частота : 48,0 КГц
Частота кадров : 31,250 кадров/сек (1536 spf)
Метод сжатия : С потерями
Размер потока : 118 Мбайт (6%)
Default : Да
Forced : Нет

Аудио #2
Идентификатор : 3
Формат : AC-3
Формат/Информация : Audio Coding 3
Расширение режима : CM (complete main)
Параметр Endianness формата : Big
Идентификатор кодека : A_AC3
Продолжительность : 43 м. 8 с.
Вид битрейта : Постоянный
Битрейт : 384 Кбит/сек
Каналы : 2 канала
Расположение каналов : Front: L R
Частота : 48,0 КГц
Частота кадров : 31,250 кадров/сек (1536 spf)
Метод сжатия : С потерями
Размер потока : 118 Мбайт (6%)
Default : Нет
Forced : Нет

pb.wtf



Скачать Агенты Щ.И.Т. через торрент http://i67.fastpic.ru/big/2015/1106/7d/c3904b7ee1ee78b91fd63b9b07470f7d.png Скачать фильм Агенты Щ.И.Т. через торрент бесплантно в хорошем качестве Описание: Действия сериала разворачиваются после событий фильма «Мстители». Агент Фил Колсон возвращается в правоохранительную организацию ... 10 10 13
Info! Золотая раздача, скачанное не засчитывается.
Торрент: Зарегистрирован [2018-05-22 12:48] · скачан: 100 раз
Статус: √ проверено
Размер: 39.52 GB
Как cкачать? Как скачать Агенты Щ.И.Т. через торрент | qTorrent

28-11-2019 20:33  

Отключить всю рекламу на сайте

18-05-2019 18:49 Агенты Щ.И.Т. Скачать торрент  

6 сезон вышел. а у вас 5 сезонpb.wtf



    Дорогой пользователь! Огромная просьба, поблагодарите релизера, оцените раздачу и оставьте свои комментарий, если Вы скачали Агенты Щ.И.Т. через торрент бесплатно! Внесите свою лепту в развитие PiratBit!
    Комментировать посты могут только пользователи прошедшие не сложную регистрацию
    Показать сообщения:    

    Агенты Щ.И.Т. через торрент
    Скачать бесплатно Агенты Щ.И.Т.
    Агенты Щ.И.Т. скачать торрент
    Агенты Щ.И.Т. смотреть онлайн
    Cкачать фильм Агенты Щ.И.Т. бесплатно
    Агенты Щ.И.Т. скачать торрент в хорошем качестве
    Агенты Щ.И.Т. смотреть онлайн бесплатно в хорошем качестве


    Вы не можете начинать темы
    Вы не можете отвечать на сообщения
    Вы не можете редактировать свои сообщения
    Вы не можете удалять свои сообщения
    Вы не можете голосовать в опросах
    Вы не можете прикреплять файлы к сообщениям
    Вы можете скачивать файлы