Ссылка на приватное зеркало нашего сайта всего за 1$. Внимание количество ограничено!!!

2 сезон

iTunes

1 сезон

1

2 сезон

2 сезон

iTunes

1 сезон

RePack

30

Новинка

ВАЖНО

ИГРА 18+

pack

RePack

MK11
pack

Забери бонус

RePack

jed

!!Акция!!

Alien_Rage

RePack

fifa19

RePack

Assassins Creed: Odyssey

RePack

NEED FOR SPEED™ PAYBACK

4 сезон

9 сезон

Бесстыжие 9 сезон

Все сериалы

все сериалы на PB.wtf

RePack

FAR CRY 5
  

Преступление в маленьком городе / Small Town Crime (Йен Нелмс) [2017, Триллер, WEB-DL 1080p] MVO [Jaskier] pb.wtf

Преступление в маленьком городе через торрент pb.wtf

Раздают: 1 [ 0 KB/s ]
Размер: 3.43 GB | Добавлен: 2 года 6 мес. назад | Торрент скачан:193 раза
Скачать  

22-05-2018 19:10 Преступление в маленьком городе Скачать торрент  

Преступление в маленьком городе / Small Town Crime
Год выпуска: 2017
Страна: США
Жанр: Триллер
Продолжительность: 01:33:12
Перевод: Профессиональный многоголосый | Jaskier
Субтитры: Нет

Режиссер: Йен Нелмс

rating скриншот  

В ролях:

Джон Хоукс, Октавия Спенсер, Роберт Форстер, Энтони Андерсон, Клифтон Коллинз мл., Майкл Вартан, Дэниел Сунджата, Джеймс Лэфферти, Джереми Рэчфорд, Дон Харви

Описание:

Отставной полицейский, злоупотребляющий выпивкой, находит тело убитой девушки. Он берется за расследование как за последний шанс на реабилитацию, однако рьяные поиски убийцы заводят героя в столь темные дебри, что под угрозой оказываются все его близкие...

Качество: WEB-DL 1080p
Формат: MKV

Видео: 1908x792 | X264/MPEG4-AVC | ~4465 kbps | 23.976 fps
Аудио#1: AC3 | 48 KHz | 5.1 (Front: L С R Side: L R) + LFE | ~384 kbps [RUS]
Аудио#2: AC3 | 48 KHz | 5.1 (Front: L С R Side: L R) + LFE | ~384 kbps [ENG]
скриншот   скриншот   скриншот  

Общее
Уникальный идентификатор : 237118803250980357239173499197924476993 (0xB2636B9C709AC82CA5A0829C4C968841)
Полное имя : F:\Small.Town.Crime.2017.1080p.WEB-DL.DD5.1.H264-JASKiER.mkv
Формат : Matroska
Версия формата : Version 2
Размер файла : 3,43 Гбайт
Продолжительность : 1 ч. 32 м.
Общий поток : 5339 Кбит/сек
Дата кодирования : UTC 2018-05-22 17:32:29
Программа кодирования : mkvmerge v5.8.0 ('No Sleep / Pillow') built on Sep 2 2012 15:37:04
Библиотека кодирования : libebml v1.2.3 + libmatroska v1.3.0

Видео
Идентификатор : 1
Формат : AVC
Формат/Информация : Advanced Video Codec
Профиль формата : High@L4
Параметр CABAC формата : Да
Параметр RefFrames формата : 5 кадров
Идентификатор кодека : V_MPEG4/ISO/AVC
Продолжительность : 1 ч. 32 м.
Битрейт : 4465 Кбит/сек
Ширина : 1908 пикселей
Высота : 792 пикселя
Соотношение сторон : 2,40:1
Режим частоты кадров : Постоянный
Частота кадров : 23,976 (24000/1001) кадра/сек
Цветовое пространство : YUV
Субдискретизация насыщенности : 4:2:0
Битовая глубина : 8 бит
Тип развёртки : Прогрессивная
Бит/(Пиксели*Кадры) : 0.123
Размер потока : 2,87 Гбайт (84%)
Язык : English
Default : Да
Forced : Нет
Цветовой диапазон : Limited
Основные цвета : BT.709
Характеристики трансфера : BT.709
Коэффициенты матрицы : BT.709

Аудио #1
Идентификатор : 2
Формат : AC-3
Формат/Информация : Audio Coding 3
Расширение режима : CM (complete main)
Параметр Endianness формата : Big
Идентификатор кодека : A_AC3
Продолжительность : 1 ч. 32 м.
Вид битрейта : Постоянный
Битрейт : 384 Кбит/сек
Каналы : 6 каналов
Расположение каналов : Front: L C R, Side: L R, LFE
Частота : 48,0 КГц
Частота кадров : 31,250 кадров/сек (1536 spf)
Метод сжатия : С потерями
Задержка видео : -42 мс.
Размер потока : 253 Мбайт (7%)
Язык : Russian
Default : Да
Forced : Нет

Аудио #2
Идентификатор : 3
Формат : AC-3
Формат/Информация : Audio Coding 3
Расширение режима : CM (complete main)
Параметр Endianness формата : Big
Идентификатор кодека : A_AC3
Продолжительность : 1 ч. 32 м.
Вид битрейта : Постоянный
Битрейт : 384 Кбит/сек
Каналы : 6 каналов
Расположение каналов : Front: L C R, Side: L R, LFE
Частота : 48,0 КГц
Частота кадров : 31,250 кадров/сек (1536 spf)
Метод сжатия : С потерями
Задержка видео : -42 мс.
Размер потока : 253 Мбайт (7%)
Язык : English
Default : Нет
Forced : Нет

Меню
00:00:00.000 : en:1
00:10:15.000 : en:2
00:19:15.000 : en:3
00:30:07.000 : en:4
00:40:00.000 : en:5
00:50:23.000 : en:6
01:01:58.000 : en:7
01:15:10.000 : en:8
01:27:07.000 : en:9

pb.wtf



Скачать Преступление в маленьком городе через торрент http://i103.fastpic.ru/big/2018/0320/19/e33a1134bfe932c09320f86ed7a6dd19.png Скачать фильм Преступление в маленьком городе через торрент бесплантно в хорошем качестве Описание: Отставной полицейский, злоупотребляющий выпивкой, находит тело убитой девушки. Он берется за расследование как за последний шанс ... 9.7 10 7
Торрент: Зарегистрирован [2018-05-22 19:10] · скачан: 193 раз
Статус: √ проверено
Размер: 3.43 GB
Как cкачать? Как скачать Преступление в маленьком городе через торрент | qTorrent

% Раздел Тема Автор DL S | L
R.G. Resident & PiratVoice - Фильмы, Видео [ 1.45 GB ] Преступление в маленьком городе / Small Town Crime [2017 HDRip от R.G. Resident] MVO [Jaskier] -Lexx- Скачать
2 | 0
Фильмы [HD 720p, 1080p] (Хороший звук DUB, MVO) [ 5.76 GB ] Преступление в маленьком городе / Small Town Crime [2017 BDRip 1080p] MVO [Jaskier] -Lexx- Скачать
1 | 0

28-11-2019 20:33  

Отключить всю рекламу на сайте

    Дорогой пользователь! Огромная просьба, поблагодарите релизера, оцените раздачу и оставьте свои комментарий, если Вы скачали Преступление в маленьком городе через торрент бесплатно! Внесите свою лепту в развитие PiratBit!
    Комментировать посты могут только пользователи прошедшие не сложную регистрацию
    Показать сообщения:    

    Преступление в маленьком городе через торрент
    Скачать бесплатно Преступление в маленьком городе
    Преступление в маленьком городе скачать торрент
    Преступление в маленьком городе смотреть онлайн
    Cкачать фильм Преступление в маленьком городе бесплатно
    Преступление в маленьком городе скачать торрент в хорошем качестве
    Преступление в маленьком городе смотреть онлайн бесплатно в хорошем качестве


    Вы не можете начинать темы
    Вы не можете отвечать на сообщения
    Вы не можете редактировать свои сообщения
    Вы не можете удалять свои сообщения
    Вы не можете голосовать в опросах
    Вы не можете прикреплять файлы к сообщениям
    Вы можете скачивать файлы