Ссылка на приватное зеркало всего за 1$. Внимание количество ограничено!!!

OK

1+1

iTunes

мы

OK

1

WEB-DLRip

Джокер

Пифагор

Ведьмак / The Witcher сериал

iTunes

ПШазам

ОК

Оно 2

iTunes

30
pack

Вам бонус

ВАЖНО

!!Акция!!

Alien_RageХит недели

RePack

Resident Evil 21

ИГРА 18+

pack

RePack

jed

RePack

fifa19

RePack

Assassins Creed: Odyssey

RePack

NEED FOR SPEED™ PAYBACK

4 сезон

9 сезон

Бесстыжие 9 сезон

Все сериалы

все сериалы на PB.wtf

RePack

FAR CRY 5
  

Патрик Мелроуз / Patrick Melrose / Сезон: 1 / Серии: 1-5 из 5 (Эдвард Бергер) [2018, Драма, WEB-DLRip] MVO [LostFilm] pb.wtf

Патрик Мелроуз через торрент pb.wtf

Размер: 3.64 GB | Добавлен: 1 год 7 мес. назад | Торрент скачан:310 раз
Скачать  

23-05-2018 04:52 Патрик Мелроуз Скачать торрент  

Патрик Мелроуз / Patrick Melrose
Год выпуска: 2018
Страна: Великобритания
Жанр: Драма
Продолжительность: ~ 01:00:00
Перевод: Профессиональный (многоголосый) | LostFilm
Субтитры: Русские, английские

Режиссер: Эдвард Бергер

rating

В ролях:

Бенедикт Камбербэтч, Дженнифер Джейсон Ли, Джессика Рэйн, Хьюго Уивинг, Прасанна Пуванараджа, Пип Торренс, Анна Маделей, Индира Варма, Дейнтон Андерсон и др.

Описание:

Патрик Мелроуз — плейбой, аристократ и алкоголик. Несмотря на деньги, жизнь Патрика сложно назвать легкой и безмятежной. Все детство ему пришлось терпеть жестокое отношение отца, пока мать предпочитала не вмешиваться. Подросший Патрик находит в себе силы пробраться в высший свет, но вместе с этим начинается его путь к саморазрушению


Качество: WEB-DLRip
Формат: AVI

Видео: XviD, ~ 1500 kbps, 720x360, 23.976 fps
Аудио#1: MP3, 48,0 КГц, 2 ch, 128 kbps - RUS
Аудио#2: MP3, 48,0 КГц, 2 ch, 128 kbps - ENG
скриншот   скриншот   скриншот   скриншот   скриншот  

Общее
Полное имя : E:\Патрик Мелроуз (сезон 1) Patrick Melrose (2018) WEB-DLRip - LostFilm\Patrick.Melrose.S01E01.WEB-DLRip.Rus.Eng.DV.LostFilm.avi
Формат : AVI
Формат/Информация : Audio Video Interleave
Размер файла : 807 Мбайт
Продолжительность : 1 ч. 3 м.
Общий поток : 1769 Кбит/сек
Название фильма : Patrick.Melrose.S01E01.WEB-DLRip.Rus.Eng.DV.LostFilm / NNM-Club
Программа кодирования : VirtualDubModRus 1.5.10.2 (build 2542/release)
Библиотека кодирования : VirtualDubMod build 2542/release

Видео
Идентификатор : 0
Формат : MPEG-4 Visual
Профиль формата : Advanced Simple@L5
Настройки формата : BVOP2
Параметр BVOP формата : 2
Параметр QPel формата : Нет
Параметр GMC формата : Без точки перехода
Параметр матрицы формата : Default (H.263)
Идентификатор кодека : XVID
Идентификатор кодека/Подсказка : XviD
Продолжительность : 1 ч. 3 м.
Битрейт : 1499 Кбит/сек
Ширина : 720 пикселей
Высота : 360 пикселей
Соотношение сторон : 2,000
Частота кадров : 23,976 (24000/1001) кадра/сек
Цветовое пространство : YUV
Субдискретизация насыщенности : 4:2:0
Битовая глубина : 8 бит
Тип развёртки : Прогрессивная
Метод сжатия : С потерями
Бит/(Пиксели*Кадры) : 0.241
Размер потока : 684 Мбайт (85%)
Заголовок : Rip by DriverV / NNM-Club
Библиотека кодирования : XviD 67

Аудио #1
Идентификатор : 1
Формат : MPEG Audio
Версия формата : Version 1
Профиль формата : Layer 3
Настройки формата : Joint stereo / MS Stereo
Идентификатор кодека : 55
Идентификатор кодека/Подсказка : MP3
Продолжительность : 1 ч. 3 м.
Вид битрейта : Постоянный
Битрейт : 128 Кбит/сек
Каналы : 2 канала
Частота : 48,0 КГц
Метод сжатия : С потерями
Размер потока : 58,4 Мбайт (7%)
Выравнивание : Соединение по промежуткам
Продолжительность промежутка : 42 мс. (1,00 видеокадр)
Время предзагрузки промежутка : 504 мс.

Аудио #2
Идентификатор : 2
Формат : MPEG Audio
Версия формата : Version 1
Профиль формата : Layer 3
Настройки формата : Joint stereo / MS Stereo
Идентификатор кодека : 55
Идентификатор кодека/Подсказка : MP3
Продолжительность : 1 ч. 3 м.
Вид битрейта : Постоянный
Битрейт : 128 Кбит/сек
Каналы : 2 канала
Частота : 48,0 КГц
Метод сжатия : С потерями
Размер потока : 58,4 Мбайт (7%)
Выравнивание : Соединение по промежуткам
Продолжительность промежутка : 42 мс. (1,00 видеокадр)
Время предзагрузки промежутка : 504 мс.

Внимание! Раздача ведётся путём добавления новых серий; при каждом добавлении создаётся новый торрент. Чтобы начать докачку новой серии, пользователям необходимо сделать следующее:
(1) остановить скачивание,
(2) удалить старый торрент у себя из клиента (старые серии удалять не надо),
(3) скачать новый торрент и запустить его у себя в клиенте вместо старого, при этом указать клиенту путь в старую папку куда и должно происходить скачивание новых серий.
Ваш клиент при этом должен произвести хеширование (проверку) старой папки (если не производит сам - помогите ему сделать это), и будет докачивать только те серии которых у вас ещё нет. Старые серии при этом не удаляются, а продолжают раздаваться!
Eсли вы уже удалили старые серии, то предотвратить повторную закачку старых серий можно, отжав галочку в соответствующих местах при запуске нового торрента. По возможности, желательно не удалять старые серии как можно дольше чтобы релизёр не столько продолжал раздавать старые серии, а смог сконцентрироваться на новых.
pb.wtf



Скачать Патрик Мелроуз через торрент http://pic1.kartinco.top/images/11/oabo1.jpg Скачать фильм Патрик Мелроуз через торрент бесплантно в хорошем качестве Описание: Патрик Мелроуз — плейбой, аристократ и алкоголик. Несмотря на деньги, жизнь Патрика сложно назвать легкой и безмятежной. Все ... 10 10 10
Торрент: Зарегистрирован [2018-06-13 04:50] · скачан: 310 раз
Статус: √ проверено
Размер: 3.64 GB
Как cкачать? Как скачать Патрик Мелроуз через торрент | qTorrent

% Раздел Тема Автор DL S | L
Зарубежные сериалы [ 19.78 GB ] Патрик Мелроуз / Patrick Melrose / Сезон: 1 / Серии: 1-5 из 5 [2018 WEB-DL 1080p] MVO [LostFilm] bober100 Скачать
2 | 0
Зарубежные сериалы [ 5.1 GB ] Патрик Мелроуз / Patrick Melrose / Сезон: 1 / Серии: 1-5 из 5 [2018 WEB-DLRip] [MVO] killermax2013 Скачать
1 | 0
Зарубежные сериалы [ 10.25 GB ] Патрик Мелроуз / Patrick Melrose / Сезон: 1 / Серии: 1-5 из 5 [2018 WEB-DL-HEVC 1080p ] MVO [Amedia] bober100 Скачать
1 | 0
Зарубежные сериалы [ 5.17 GB ] Патрик Мелроуз / Patrick Melrose / Сезон: 1 / Серии: 1-5 из 5 [2018 WEB-DL 720p] DVO [SunshineStudio] bober100 Скачать
1 | 0
Зарубежные сериалы [ 6.92 GB ] Патрик Мелроуз / Patrick Melrose / Сезон: 1 / Серии: 1-5 из 5 [2018 WEB-DL 720p] MVO [Jaskier] bober100 Скачать
1 | 0
Зарубежные сериалы [ 3.56 GB ] Патрик Мелроуз / Patrick Melrose / Сезон: 1 / Серии: 1-5 из 5 [2018 WEB-DLRip] MVO [Jaskier] bober100 Скачать
1 | 0


Последний раз редактировалось: bober100 (2018-06-13 04:50), всего редактировалось 7 раз(а)

28-11-2019 20:33  

Отключить всю рекламу на сайте

23-05-2018 05:52 Патрик Мелроуз Скачать торрент  

Просто шикарный сериалpb.wtf



23-09-2019 20:07 Патрик Мелроуз Скачать торрент  

DEVI писал(а):

Просто шикарный сериал

Полностью согласен.pb.wtf



    Дорогой пользователь! Огромная просьба, поблагодарите релизера, оцените раздачу и оставьте свои комментарий, если Вы скачали Патрик Мелроуз через торрент бесплатно! Внесите свою лепту в развитие PiratBit!
    Комментировать посты могут только пользователи прошедшие не сложную регистрацию
    Показать сообщения:    

    Патрик Мелроуз через торрент
    Скачать бесплатно Патрик Мелроуз
    Патрик Мелроуз скачать торрент
    Патрик Мелроуз смотреть онлайн
    Cкачать фильм Патрик Мелроуз бесплатно
    Патрик Мелроуз скачать торрент в хорошем качестве
    Патрик Мелроуз смотреть онлайн бесплатно в хорошем качестве


    Вы не можете начинать темы
    Вы не можете отвечать на сообщения
    Вы не можете редактировать свои сообщения
    Вы не можете удалять свои сообщения
    Вы не можете голосовать в опросах
    Вы не можете прикреплять файлы к сообщениям
    Вы можете скачивать файлы