Ссылка на приватное зеркало нашего сайта всего за 1$. Внимание количество ограничено!!!

2 сезон

iTunes

1 сезон

1

2 сезон

2 сезон

iTunes

1 сезон

RePack

30

Новинка

ВАЖНО

ИГРА 18+

pack

RePack

MK11
pack

Забери бонус

RePack

jed

!!Акция!!

Alien_Rage

RePack

fifa19

RePack

Assassins Creed: Odyssey

RePack

NEED FOR SPEED™ PAYBACK

4 сезон

9 сезон

Бесстыжие 9 сезон

Все сериалы

все сериалы на PB.wtf

RePack

FAR CRY 5
  

Для людей / For the People / Сезон: 1 / Серии: 1-10 из 10 (Том Верика, Николь Рубио, Дэйзи фон Шерлер Майер) [2018, драма, WEBRip] MVO [Jaskier] pb.wtf

Для людей через торрент pb.wtf

Размер: 5.3 GB | Добавлен: 2 года 5 мес. назад | Торрент скачан:3 раза
Скачать  

23-05-2018 05:46 Для людей Скачать торрент  

Для людей / For the People
Год выпуска: 2018
Страна: США
Жанр: драма
Продолжительность: ~ 00:45:00 серия
Перевод: Профессиональный многоголосый | Jaskier
Субтитры: отсутствуют

Режиссер: Том Верика, Николь Рубио, Дэйзи фон Шерлер Майер

rating

В ролях:

Бритт Робертсон, Джасмин Савой Браун, Бен Раппапорт, Анна Дивер Смит, Хоуп Дэвис, Бен Шенкман, Реге Пейдж, Весам Киш, Сюзанна Флуд, Вонди Куртис-Холл

Описание:

Сериал расскажет о шести талантливых начинающих юристах, работающих по разные стороны закона над самыми громкими делами. Эти молодые ребята подвергнутся испытаниям как в личной, так и в профессиональной жизни, которая станет надолго связана с работой самого престижного суда Америки.

Качество: WEBRip
Формат: AVI

Видео: XviD, ~ 1500 kbps, 720x400 (16:9), 23.976 fps
Аудио#1: MP3, 48,0 КГц, 2 ch, 128 kbps - Rus
Аудио#2: MP3, 48,0 КГц, 2 ch, 128 kbps - Eng
скриншот   скриншот   скриншот  

Общее
Полное имя : F:\For.the.People Season 1 (WEBRip l 400p l Jaskier)\For.the.People.S01E01.WEBRip.Jaskier.avi
Формат : AVI
Формат/Информация : Audio Video Interleave
Размер файла : 545 Мбайт
Продолжительность : 43 м. 2 с.
Общий поток : 1769 Кбит/сек
Программа кодирования : VirtualDubMod 1.5.10.3 | www.virtualdub-fr.org || (build 2550/release)
Библиотека кодирования : VirtualDubMod build 2550/release

Видео
Идентификатор : 0
Формат : MPEG-4 Visual
Профиль формата : Advanced Simple@L5
Параметр BVOP формата : 2
Параметр QPel формата : Нет
Параметр GMC формата : Без точки перехода
Параметр матрицы формата : Default (MPEG)
Идентификатор кодека : XVID
Идентификатор кодека/Подсказка : XviD
Продолжительность : 43 м. 2 с.
Битрейт : 1499 Кбит/сек
Ширина : 720 пикселей
Высота : 400 пикселей
Соотношение сторон : 16:9
Частота кадров : 23,976 (24000/1001) кадра/сек
Цветовое пространство : YUV
Субдискретизация насыщенности : 4:2:0
Битовая глубина : 8 бит
Тип развёртки : Прогрессивная
Метод сжатия : С потерями
Бит/(Пиксели*Кадры) : 0.217
Размер потока : 461 Мбайт (85%)
Библиотека кодирования : XviD 1.2.1 (UTC 2008-12-04)

Аудио #1
Идентификатор : 1
Формат : MPEG Audio
Версия формата : Version 1
Профиль формата : Layer 3
Режим : Joint stereo
Расширение режима : MS Stereo
Идентификатор кодека : 55
Идентификатор кодека/Подсказка : MP3
Продолжительность : 43 м. 2 с.
Вид битрейта : Постоянный
Битрейт : 128 Кбит/сек
Каналы : 2 канала
Частота : 48,0 КГц
Метод сжатия : С потерями
Размер потока : 39,4 Мбайт (7%)
Выравнивание : Соединение по промежуткам
Продолжительность промежутка : 42 мс. (1,00 видеокадр)
Время предзагрузки промежутка : 504 мс.
Библиотека кодирования : LAME3.100Є

Аудио #2
Идентификатор : 2
Формат : MPEG Audio
Версия формата : Version 1
Профиль формата : Layer 3
Режим : Joint stereo
Расширение режима : MS Stereo
Идентификатор кодека : 55
Идентификатор кодека/Подсказка : MP3
Продолжительность : 43 м. 2 с.
Вид битрейта : Постоянный
Битрейт : 128 Кбит/сек
Каналы : 2 канала
Частота : 48,0 КГц
Метод сжатия : С потерями
Размер потока : 39,4 Мбайт (7%)
Выравнивание : Соединение по промежуткам
Продолжительность промежутка : 42 мс. (1,00 видеокадр)
Время предзагрузки промежутка : 504 мс.
Библиотека кодирования : LAME3.100Є

Когда раздача ведётся путём добавления новых серий, при каждом добавлении создётся новый торрент. Чтобы начать докачку новой серии, пользователям необходимо сделать следующее:
(1) остановить скачивание,
(2) удалить старый торрент у себя из клиента (старые серии удалять не надо),
(3) скачать новый торрент и запустить его у себя в клиенте вместо старого, при этом указать клиенту путь в старую папку, куда и должно происходить скачивание новых серий.
Ваш клиент при этом должен произвести хеширование (проверку) старой папки (если не производит сам - помогите ему сделать это), и будет докачивать только те серии, которых у вас ещё нет. Старые серии при этом не удаляются, а продолжают раздаваться!
Eсли вы уже удалили старые серии, то предотвратить повторную закачку старых серий можно, отжав галочку в соответсвующих местах при запуске нового торрента. По возможности, желательно не удалять старые серии как можно дольше, чтобы релизёр не столько продолжал раздавать старые серии, а смог сконцентрироваться на новых.
pb.wtf



Скачать Для людей через торрент https://i101.fastpic.ru/big/2018/0328/fd/1368503c3f42f2627e96adfb1ef052fd.png Скачать фильм Для людей через торрент бесплантно в хорошем качестве Описание: Сериал расскажет о шести талантливых начинающих юристах, работающих по разные стороны закона над самыми громкими делами. Эти ... 10 10 2
Торрент: Зарегистрирован [2018-07-04 07:35] · скачан: 3 раз
Статус: √ проверено
Размер: 5.3 GB
Как cкачать? Как скачать Для людей через торрент | qTorrent

% Раздел Тема Автор DL S | L
Зарубежные сериалы [ 17.99 GB ] Для людей / For the People / Сезон: 1 / Серии: 1-10 из 10 [2018 WEB-DL 1080p] MVO [Newstudio] bober100 Скачать
1 | 0
Зарубежные сериалы [ 29.95 GB ] Для людей / For the People / Сезон: 1 / Серии: 1-10 из 10 [2018 WEBRip 1080p] DUB [Amedia] bober100 Скачать
1 | 0
Зарубежные сериалы [ 10.98 GB ] Для людей / For the People / Сезон: 1 / Серии: 1-10 из 10 [2018 WEBRip 720p] MVO [Jaskier] bober100 Скачать
1 | 0
Зарубежные сериалы [ 5.37 GB ] Для людей / For the People / Сезон: 1 / Серии: 1-10 из 10 [2018 WEB-DLRip] MVO [Newstudio] bober100 Скачать
1 | 0

28-11-2019 20:33  

Отключить всю рекламу на сайте

    Дорогой пользователь! Огромная просьба, поблагодарите релизера, оцените раздачу и оставьте свои комментарий, если Вы скачали Для людей через торрент бесплатно! Внесите свою лепту в развитие PiratBit!
    Комментировать посты могут только пользователи прошедшие не сложную регистрацию
    Показать сообщения:    

    Для людей через торрент
    Скачать бесплатно Для людей
    Для людей скачать торрент
    Для людей смотреть онлайн
    Cкачать фильм Для людей бесплатно
    Для людей скачать торрент в хорошем качестве
    Для людей смотреть онлайн бесплатно в хорошем качестве


    Вы не можете начинать темы
    Вы не можете отвечать на сообщения
    Вы не можете редактировать свои сообщения
    Вы не можете удалять свои сообщения
    Вы не можете голосовать в опросах
    Вы не можете прикреплять файлы к сообщениям
    Вы можете скачивать файлы