Marvel's Avengers Deluxe Edition (супер цена) 159р. Внимание количество ограничено!!!

2 сезон

iTunes

iTunes

1

iTunes

iTunes

iTunes

WEBRip

iTunes

30
pack

Новость дня

ВАЖНО

!!Акция!!

Alien_RageХит недели

RePack

Horizon Zero Dawn

ИГРА 18+

pack

RePack

jed

!!Акция!!

Alien_Rage

RePack

fifa19

RePack

Assassins Creed: Odyssey

RePack

NEED FOR SPEED™ PAYBACK

4 сезон

9 сезон

Бесстыжие 9 сезон

Все сериалы

все сериалы на PB.wtf

RePack

FAR CRY 5
  

Герберт Уэст: Реаниматор / Herbert West: Re-Animator (Айван Зуккон) [2017, Ужасы, WEB-DL 720p] MVO [КОЛОБОК] pb.wtf

Герберт Уэст: Реаниматор через торрент pb.wtf

Размер: 2.73 GB | Добавлен: 2 года 3 мес. назад | Торрент скачан:113 раз
Скачать  

23-05-2018 07:56 Герберт Уэст: Реаниматор Скачать торрент  

Герберт Уэст: Реаниматор / Herbert West: Re-AnimatorГод выпуска: 2017
Страна: Италия
Жанр: Ужасы
Продолжительность: 01:20:35
Перевод: Любительский (многоголосый) | КОЛОБОК
Субтитры: отсутствуют

Режиссер: Айван Зуккон

rating

В ролях:

Амануэль Керман, Алессио Керубини, Роберто Маррелли, София Паули, Рита Русчано

Описание:

После потери дочери, известный ученый Герберт Уэст начинает эксперементировать с особой сывороткой собственного изобретения, отчаянно пытаясь вернуть её к жизни.

Качество: WEB-DL 720p
Формат: MKV

Видео: h.264, 4 456 Кбит/с, 1280x536
Аудио#1: Русский (AC3, 2 ch, 384 Кбит/с)
скриншот  скриншот  скриншот  

Общее
Уникальный идентификатор : 232091554708693184303655734523232416391 (0xAE9B351F11015CDE84C88FA133967287)
Полное имя : F:\Herbert West - Reanimator.2017.Pk.WEB-DL.72Op.mkv
Формат : Matroska
Версия формата : Version 2
Размер файла : 2,73 Гбайт
Продолжительность : 1 ч. 20 м.
Режим общего битрейта : Переменный
Общий поток : 4842 Кбит/сек
Дата кодирования : UTC 2018-05-16 13:45:14
Программа кодирования : mkvmerge v8.3.0 ('Over the Horizon') 64bit
Библиотека кодирования : libebml v1.3.1 + libmatroska v1.4.2

Видео
Идентификатор : 1
Формат : AVC
Формат/Информация : Advanced Video Codec
Профиль формата : High@L4.1
Параметр CABAC формата : Да
Параметр RefFrames формата : 4 кадра
Идентификатор кодека : V_MPEG4/ISO/AVC
Продолжительность : 1 ч. 20 м.
Вид битрейта : Переменный
Битрейт : 4456 Кбит/сек
Максимальный битрейт : 5000 Кбит/сек
Ширина : 1280 пикселей
Высота : 536 пикселей
Соотношение сторон : 2,40:1
Режим частоты кадров : Постоянный
Частота кадров : 23,976 (24000/1001) кадра/сек
Стандарт вещания : Component
Цветовое пространство : YUV
Субдискретизация насыщенности : 4:2:0
Битовая глубина : 8 бит
Тип развёртки : Прогрессивная
Бит/(Пиксели*Кадры) : 0.265
Размер потока : 2,46 Гбайт (90%)
Default : Да
Forced : Нет
Цветовой диапазон : Limited
Основные цвета : BT.709
Характеристики трансфера : BT.709
Коэффициенты матрицы : BT.709

Аудио
Идентификатор : 2
Формат : AC-3
Формат/Информация : Audio Coding 3
Расширение режима : CM (complete main)
Параметр Endianness формата : Big
Идентификатор кодека : A_AC3
Продолжительность : 1 ч. 20 м.
Вид битрейта : Постоянный
Битрейт : 384 Кбит/сек
Каналы : 2 канала
Расположение каналов : Front: L R
Частота : 48,0 КГц
Частота кадров : 31,250 кадров/сек (1536 spf)
Метод сжатия : С потерями
Размер потока : 221 Мбайт (8%)
Default : Да
Forced : Нет

pb.wtf



Скачать Герберт Уэст: Реаниматор через торрент http://img12.lostpic.net/2018/05/23/4f2f610d4bc962a334a24ace6b12d196.jpg Скачать фильм Герберт Уэст: Реаниматор через торрент бесплантно в хорошем качестве Описание: После потери дочери, известный ученый Герберт Уэст начинает эксперементировать с особой сывороткой собственного изобретения, ... 8.7 10 7
Торрент: Зарегистрирован [2018-05-23 07:56] · скачан: 113 раз
Статус: T временная
Размер: 2.73 GB
Как cкачать? Как скачать Герберт Уэст: Реаниматор через торрент | qTorrent



Последний раз редактировалось: bober100 (2018-05-23 18:47), всего редактировалось 1 раз

28-11-2019 20:33  

Отключить всю рекламу на сайте

23-05-2018 08:24 Герберт Уэст: Реаниматор Скачать торрент  

В старом Реаниматоре никакой дочери не было. Это ремейк или вольная фантазия на тему Реаниматора?pb.wtf



23-05-2018 09:29 Герберт Уэст: Реаниматор Скачать торрент  

посмотрим что интересного в сие шедевре,наврятли это ремейкpb.wtf



23-05-2018 14:21 Герберт Уэст: Реаниматор Скачать торрент  

Как я понял, используется тема не старого фильма, а произведения Г. Лавкрафта.pb.wtf



23-05-2018 17:40 Герберт Уэст: Реаниматор Скачать торрент  

В названии пропустили букву реАниматорpb.wtf



23-05-2018 18:47 Герберт Уэст: Реаниматор Скачать торрент  

Kromlek писал(а):

В названии пропустили букву реАниматор

Спасибо исправил).pb.wtf



    Дорогой пользователь! Огромная просьба, поблагодарите релизера, оцените раздачу и оставьте свои комментарий, если Вы скачали Герберт Уэст: Реаниматор через торрент бесплатно! Внесите свою лепту в развитие PiratBit!
    Комментировать посты могут только пользователи прошедшие не сложную регистрацию
    Показать сообщения:    

    Герберт Уэст: Реаниматор через торрент
    Скачать бесплатно Герберт Уэст: Реаниматор
    Герберт Уэст: Реаниматор скачать торрент
    Герберт Уэст: Реаниматор смотреть онлайн
    Cкачать фильм Герберт Уэст: Реаниматор бесплатно
    Герберт Уэст: Реаниматор скачать торрент в хорошем качестве
    Герберт Уэст: Реаниматор смотреть онлайн бесплатно в хорошем качестве


    Вы не можете начинать темы
    Вы не можете отвечать на сообщения
    Вы не можете редактировать свои сообщения
    Вы не можете удалять свои сообщения
    Вы не можете голосовать в опросах
    Вы не можете прикреплять файлы к сообщениям
    Вы можете скачивать файлы