Ссылка на приватное зеркало всего за 1$. Внимание количество ограничено!!!

OK

1+1

iTunes

мы

OK

1

WEB-DLRip

Джокер

Пифагор

Ведьмак / The Witcher сериал

Лицензия

ПШазам

ОК

Оно 2

iTunes

30
pack

Вам бонус

ВАЖНО

!!Акция!!

Alien_RageХит недели

RePack

Resident Evil 21

ИГРА 18+

pack

RePack

jed

RePack

fifa19

RePack

Assassins Creed: Odyssey

RePack

NEED FOR SPEED™ PAYBACK

4 сезон

9 сезон

Бесстыжие 9 сезон

Все сериалы

все сериалы на PB.wtf

RePack

FAR CRY 5
  

Сломанный ключ / The Broken Key (Луис Неро) [2017, Фантастика, триллер, история, BDRip 720p] MVO ["Синема УС"] pb.wtf

Сломанный ключ через торрент pb.wtf

Размер: 5.73 GB | Добавлен: 1 год 7 мес. назад | Торрент скачан:44 раза
Скачать  

23-05-2018 14:41 Сломанный ключ Скачать торрент  

Сломанный ключ / The Broken KeyГод выпуска: 2017
Страна: Италия
Жанр: Фантастика, триллер, история
Продолжительность: 02:05:54
Перевод: Любительский (многоголосый) | "Синема УС"
Субтитры: отсутствуют

Режиссер: Луис Неро

rating

В ролях:

Майкл Мэдсен, Франко Неро, Рутгер Хауэр, Кристофер Ламберт, Мария ди Медейруш, Кабир Беди, Уильям Болдуин, Джеральдина Чаплин, Марко Фьорини, Юн С. Джойс, Диана Дель’Эрба, Уолтер Липпа, Риккардо Мей, Линда Мессерклингер, Ариадна Ромеро, Морена Сальвино

Описание:

В недалёком будущем бумага становится дефицитом, а библиотеки превращаются в закрытые музеи, которые не каждому доступны. Печать здесь запрещена и информация поступает только на цифровые носители. В этом цифровом городе неожиданно происходит серия ритуальных убийств. Главный герой Адам попытается настигнуть убийцу, следуя подсказкам, которые он оставляет.

Качество: BDRip 720p
Формат: MKV

Видео: 6 069 Кбит/с, 1280x536
Аудио#1: Русский, (AC3, 2 ch, 448 Кбит/с)
скриншот  скриншот  скриншот  

Общее
Уникальный идентификатор : 187425382932862051076178458204119639781 (0x8D00D0D3DE769C2CA17F1C41D15E26E5)
Полное имя : F:\The.Broken.Key.2017.P.BDRip.72Op.mkv
Формат : Matroska
Версия формата : Version 2
Размер файла : 5,73 Гбайт
Продолжительность : 2 ч. 5 м.
Режим общего битрейта : Переменный
Общий поток : 6519 Кбит/сек
Дата кодирования : UTC 2018-05-23 04:56:07
Программа кодирования : mkvmerge v8.3.0 ('Over the Horizon') 64bit
Библиотека кодирования : libebml v1.3.1 + libmatroska v1.4.2

Видео
Идентификатор : 1
Формат : AVC
Формат/Информация : Advanced Video Codec
Профиль формата : High@L4.1
Параметр CABAC формата : Да
Параметр RefFrames формата : 4 кадра
Идентификатор кодека : V_MPEG4/ISO/AVC
Продолжительность : 2 ч. 5 м.
Вид битрейта : Переменный
Битрейт : 6069 Кбит/сек
Максимальный битрейт : 6800 Кбит/сек
Ширина : 1280 пикселей
Высота : 536 пикселей
Соотношение сторон : 2,40:1
Режим частоты кадров : Постоянный
Частота кадров : 23,976 (24000/1001) кадра/сек
Стандарт вещания : Component
Цветовое пространство : YUV
Субдискретизация насыщенности : 4:2:0
Битовая глубина : 8 бит
Тип развёртки : Прогрессивная
Бит/(Пиксели*Кадры) : 0.361
Размер потока : 5,22 Гбайт (91%)
Default : Да
Forced : Нет
Цветовой диапазон : Limited
Основные цвета : BT.709
Характеристики трансфера : BT.709
Коэффициенты матрицы : BT.709

Аудио
Идентификатор : 2
Формат : AC-3
Формат/Информация : Audio Coding 3
Расширение режима : CM (complete main)
Параметр Endianness формата : Big
Идентификатор кодека : A_AC3
Продолжительность : 2 ч. 5 м.
Вид битрейта : Постоянный
Битрейт : 448 Кбит/сек
Каналы : 2 канала
Расположение каналов : Front: L R
Частота : 48,0 КГц
Частота кадров : 31,250 кадров/сек (1536 spf)
Метод сжатия : С потерями
Размер потока : 403 Мбайт (7%)
Default : Да
Forced : Нет

pb.wtf



Скачать Сломанный ключ через торрент http://img12.lostpic.net/2018/05/23/2f4b1b31b5e00c93aa359adb9da6db6f.jpg Скачать фильм Сломанный ключ через торрент бесплантно в хорошем качестве Описание: В недалёком будущем бумага становится дефицитом, а библиотеки превращаются в закрытые музеи, которые не каждому доступны. Печать ... 10 10 2
Торрент: Зарегистрирован [2018-05-23 14:41] · скачан: 44 раз
Статус: # сомнительно
Размер: 5.73 GB
Как cкачать? Как скачать Сломанный ключ через торрент | qTorrent

% Раздел Тема Автор DL S | L
T Фильмы (мультфильмы) cо спонсором показа (Новинки AVI/MKV) [ 2.04 GB ] Сломанный ключ / The Broken Key [2017 история HDRip] MVO ["Синема УС"] bober100 Скачать
1 | 0
T Фильмы (мультфильмы) cо спонсором показа (Новинки AVI/MKV) [ 1.37 GB ] Сломанный ключ / The Broken Key [2017 история HDRip] MVO ["Синема УС"] bober100 Скачать
1 | 0

28-11-2019 20:33  

Отключить всю рекламу на сайте

    Дорогой пользователь! Огромная просьба, поблагодарите релизера, оцените раздачу и оставьте свои комментарий, если Вы скачали Сломанный ключ через торрент бесплатно! Внесите свою лепту в развитие PiratBit!
    Комментировать посты могут только пользователи прошедшие не сложную регистрацию
    Показать сообщения:    

    Сломанный ключ через торрент
    Скачать бесплатно Сломанный ключ
    Сломанный ключ скачать торрент
    Сломанный ключ смотреть онлайн
    Cкачать фильм Сломанный ключ бесплатно
    Сломанный ключ скачать торрент в хорошем качестве
    Сломанный ключ смотреть онлайн бесплатно в хорошем качестве


    Вы не можете начинать темы
    Вы не можете отвечать на сообщения
    Вы не можете редактировать свои сообщения
    Вы не можете удалять свои сообщения
    Вы не можете голосовать в опросах
    Вы не можете прикреплять файлы к сообщениям
    Вы можете скачивать файлы