Ссылка на приватное зеркало нашего сайта всего за 1$. Внимание количество ограничено!!!

2 сезон

iTunes

1 сезон

1

iTunes

iTunes

iTunes

1 сезон

RePack

30

ИГРА 18+

pack

ВАЖНО

!!Акция!!

Alien_RageХит недели

RePack

MK11
pack

Забери бонус

RePack

jed

!!Акция!!

Alien_Rage

RePack

fifa19

RePack

Assassins Creed: Odyssey

RePack

NEED FOR SPEED™ PAYBACK

4 сезон

9 сезон

Бесстыжие 9 сезон

Все сериалы

все сериалы на PB.wtf

RePack

FAR CRY 5
  

Могучие рейнджеры / Power Rangers (Дин Израэлайт) [2017, фантастика, боевик, приключения, UHD BDRemux 2160p] Дубляж [Лицензия] pb.wtf

Могучие рейнджеры через торрент pb.wtf

Размер: 41.44 GB | Добавлен: 2 года 4 мес. назад | Торрент скачан:11 раз
Скачать  

23-05-2018 14:53 Могучие рейнджеры Скачать торрент  

Могучие рейнджеры / Power Rangers

Год выпуска: 2017
Страна: США, Гонконг, Япония, Мексика, Канада, Новая Зеландия
Жанр: фантастика, боевик, приключения
Продолжительность: 02:03:59
Перевод: Дублированный [Лицензия]
Субтитры: Русские (forced, full), английские
Режиссер: Дин Израэлайт
В ролях:

Дакре Монтгомери (Jason (Red Ranger)), Наоми Скотт (Kimberly (Pink Ranger)), АрДжей Сайлер (Billy (Blue Ranger)), Луди Юэнь (Zack (Black Ranger)), Бекки Джи (Trini (Yellow Ranger)), Элизабет Бэнкс (Rita Repulsa), Брайан Крэнстон (Zordon), Билл Хейдер (Alpha 5, озвучка), Мэтт Шайвли (Damo), Коуди Кирсли (Hawkeye), Дэвид Денман (Sam Scott), Роберт Молони (Ted Hart)
Описание:
Пять обычных старшеклассников узнают, что их маленький город Энджел Гроув и весь мир находятся на грани уничтожения инопланетной угрозой. Избранные судьбой наши герои быстро понимают, что они единственные, кто может спасти планету.
Рейтинг:

MPAA: PG-13 - Детям до 13 лет просмотр не желателен
Качество: UHD BDRemux 2160p
Формат: MKV
Видео: HEVC, HDR, 41.8 Мбит/с, 3840x2160, 23.976 Кадр/с
Аудио #01: 48 kHz, AC3, 5.1, 448 Kbps | Дублированный | Лицензия | RUS |
Аудио #02: 48 kHz, TrueHD, 7.1, 4893 Kbps | Оригинал | ENG |
Аудио #03: 48 kHz, AC3, 5.1, 640 Kbps | Оригинал | ENG |
Навигация по главам: есть

Общее
Уникальный идентификатор : 190262533516744142887411779044625426616 (0x8F233B26B6EF60FEBBEAFB49411528B8)
Полное имя : H:\Power.Rangers.2017.2160p.BluRay.REMUX.HEVC.x265.10bit.HDR.Master5.mkv
Формат : Matroska
Версия формата : Version 4 / Version 2
Размер файла : 41,4 Гбайт
Продолжительность : 2 ч. 3 м.
Режим общего битрейта : Переменный
Общий поток : 47,8 Мбит/сек
Название фильма : Power.Rangers.2017.2160p.BluRay.REMUX.HEVC.x265.10bit.HDR.Master5
Дата кодирования : UTC 2018-05-23 05:29:27
Программа кодирования : mkvmerge v8.1.0 ('Psychedelic Postcard') 32bit
Библиотека кодирования : libebml v1.3.1 + libmatroska v1.4.2
Обложка : Yes
Attachments : cover.jpg

Видео
Идентификатор : 1
Формат : HEVC
Формат/Информация : High Efficiency Video Coding
Профиль формата : Main 10@L5.1@High
Идентификатор кодека : V_MPEGH/ISO/HEVC
Продолжительность : 2 ч. 3 м.
Битрейт : 41,8 Мбит/сек
Ширина : 3840 пикселей
Высота : 2160 пикселей
Соотношение сторон : 16:9
Режим частоты кадров : Постоянный
Частота кадров : 23,976 (24000/1001) кадра/сек
Цветовое пространство : YUV
Субдискретизация насыщенности : 4:2:0 (Type 2)
Битовая глубина : 10 бит
Бит/(Пиксели*Кадры) : 0.210
Размер потока : 36,2 Гбайт (87%)
Заголовок : Power.Rangers.2017.2160p.BluRay.REMUX.HEVC.x265.10bit.HDR.Master5
Язык : English
Default : Да
Forced : Нет
Цветовой диапазон : Limited
Основные цвета : BT.2020
Характеристики трансфера : SMPTE ST 2084
Коэффициенты матрицы : BT.2020 non-constant
MasteringDisplay_ColorPrimaries : R: x=0.680000 y=0.320000, G: x=0.265000 y=0.690000, B: x=0.150000 y=0.060000, White point: x=0.312700 y=0.329000
MasteringDisplay_Luminance : min: 0.0050 cd/m2, max: 4000.0000 cd/m2
MaxCLL : 1000 cd/m2
MaxFALL : 657 cd/m2

Аудио #1
Идентификатор : 2
Формат : AC-3
Формат/Информация : Audio Coding 3
Расширение режима : CM (complete main)
Параметр Endianness формата : Big
Идентификатор кодека : A_AC3
Продолжительность : 2 ч. 3 м.
Вид битрейта : Постоянный
Битрейт : 448 Кбит/сек
Каналы : 6 каналов
Расположение каналов : Front: L C R, Side: L R, LFE
Частота : 48,0 КГц
Частота кадров : 31,250 кадров/сек (1536 spf)
Метод сжатия : С потерями
Размер потока : 397 Мбайт (1%)
Заголовок : Дубляж
Язык : Russian
Default : Да
Forced : Нет

Аудио #2
Идентификатор : 3
Формат : Atmos / TrueHD
Идентификатор кодека : A_TRUEHD
Продолжительность : 2 ч. 3 м.
Вид битрейта : Переменный
Битрейт : 4893 Кбит/сек
Максимальный битрейт : 8565 Кбит/сек
Каналы : Object Based / 8 каналов
Расположение каналов : Object Based / Front: L C R, Side: L R, Back: L R, LFE
Частота : / 48,0 КГц
Частота кадров : 1200,000 кадров/сек (40 spf)
Метод сжатия : Без потерь
Размер потока : 4,24 Гбайт (10%)
Заголовок : Original
Язык : English
Default : Нет
Forced : Нет

Аудио #3
Идентификатор : 4
Формат : AC-3
Формат/Информация : Audio Coding 3
Расширение режима : CM (complete main)
Параметр Endianness формата : Big
Идентификатор кодека : A_AC3
Продолжительность : 2 ч. 3 м.
Вид битрейта : Постоянный
Битрейт : 640 Кбит/сек
Каналы : 6 каналов
Расположение каналов : Front: L C R, Side: L R, LFE
Частота : 48,0 КГц
Частота кадров : 31,250 кадров/сек (1536 spf)
Метод сжатия : С потерями
Размер потока : 568 Мбайт (1%)
Язык : English
Default : Нет
Forced : Нет

Текст #1
Идентификатор : 5
Формат : UTF-8
Идентификатор кодека : S_TEXT/UTF8
Идентификатор кодека/Информация : UTF-8 Plain Text
Продолжительность : 1 ч. 51 м.
Битрейт : 2 бит/сек
Count of elements : 43
Размер потока : 1,91 Кбайт (0%)
Заголовок : Forced
Язык : Russian
Default : Да
Forced : Нет

Текст #2
Идентификатор : 6
Формат : UTF-8
Идентификатор кодека : S_TEXT/UTF8
Идентификатор кодека/Информация : UTF-8 Plain Text
Продолжительность : 1 ч. 55 м.
Битрейт : 99 бит/сек
Count of elements : 1661
Размер потока : 83,9 Кбайт (0%)
Заголовок : Full
Язык : Russian
Default : Нет
Forced : Нет

Текст #3
Идентификатор : 7
Формат : UTF-8
Идентификатор кодека : S_TEXT/UTF8
Идентификатор кодека/Информация : UTF-8 Plain Text
Продолжительность : 1 ч. 52 м.
Битрейт : 56 бит/сек
Count of elements : 1623
Размер потока : 46,9 Кбайт (0%)
Заголовок : Full
Язык : English
Default : Нет
Forced : Нет

Текст #4
Идентификатор : 8
Формат : UTF-8
Идентификатор кодека : S_TEXT/UTF8
Идентификатор кодека/Информация : UTF-8 Plain Text
Продолжительность : 1 ч. 55 м.
Битрейт : 66 бит/сек
Count of elements : 1876
Размер потока : 56,4 Кбайт (0%)
Заголовок : SDH
Язык : English
Default : Нет
Forced : Нет

Меню
00:00:00.000 : en:Chapter 01
00:07:00.253 : en:Chapter 02
00:13:45.241 : en:Chapter 03
00:18:57.720 : en:Chapter 04
00:25:49.590 : en:Chapter 05
00:31:17.125 : en:Chapter 06
00:38:25.803 : en:Chapter 07
00:50:50.089 : en:Chapter 08
01:00:01.264 : en:Chapter 09
01:08:10.920 : en:Chapter 10
01:17:07.790 : en:Chapter 11
01:24:42.786 : en:Chapter 12
01:30:46.066 : en:Chapter 13
01:34:19.904 : en:Chapter 14
01:44:33.976 : en:Chapter 15
01:51:47.200 : en:Chapter 16
pb.wtf



Скачать Могучие рейнджеры через торрент https://b.radikal.ru/b42/1805/92/e8e6d499c761.jpg Скачать фильм Могучие рейнджеры через торрент бесплантно в хорошем качестве Описание: Пять обычных старшеклассников узнают, что их маленький город Энджел Гроув и весь мир находятся на грани уничтожения инопланетной ... 10 10 3
Info! Золотая раздача, скачанное не засчитывается.
Торрент: Зарегистрирован [2018-05-23 14:53] · скачан: 11 раз
Статус: √ проверено
Размер: 41.44 GB
Как cкачать? Как скачать Могучие рейнджеры через торрент | qTorrent

% Раздел Тема Автор DL S | L
Ultra HD (UHD: 2K, 4K, 8K) — видео сверхвысокой чёткости [ 46.1 GB ] Могучие рейнджеры / Power Rangers [2017 UHD BDRemux 2160p] + AVO [Л. Володарский] sheker187 Скачать
1 | 0
Фильмы (WEB-DL 720p, 1080p) [ 5.03 GB ] Могучие рейнджеры / Power Rangers [2017 WEBRip 1080p ] [Локализованная версия] DUB [] bober100 Скачать
1 | 0
Фильмы (Blu-ray, BD-Remux, HDDVD) [ 26.49 GB ] Могучие рейнджеры / Power Rangers [2017 BD Remux 1080p] AVO [Володарский] +DUB [] bober100 Скачать
1 | 0
Фильмы [HD 720p, 1080p] (Хороший звук DUB, MVO) [ 5.07 GB ] Могучие рейнджеры / Power Rangers [2017 BDRip 1080p [HEVC] ()] Мичман37 Скачать
1 | 0
Фильмы 2017 [DVDrip, WEB-DLRip, HDrip] (DUB, MVO) [ 2.18 GB ] Могучие рейнджеры / Power Rangers [2017 BDRip] - [] Twi7ter Скачать
1 | 0
Фильмы 2017 [DVDrip, WEB-DLRip, HDrip] (DUB, MVO) [ 1.46 GB ] Могучие рейнджеры / Power Rangers [2017 BDRip] - [] Twi7ter Скачать
3 | 0
Фильмы 2017 [DVDrip, WEB-DLRip, HDrip] (DUB, MVO) [ 744 MB ] Могучие рейнджеры / Power Rangers [2017 Гонконг Япония BDRip-AVC] sokol_ok Скачать
2 | 0

28-11-2019 20:33  

Отключить всю рекламу на сайте

    Дорогой пользователь! Огромная просьба, поблагодарите релизера, оцените раздачу и оставьте свои комментарий, если Вы скачали Могучие рейнджеры через торрент бесплатно! Внесите свою лепту в развитие PiratBit!
    Комментировать посты могут только пользователи прошедшие не сложную регистрацию
    Показать сообщения:    

    Могучие рейнджеры через торрент
    Скачать бесплатно Могучие рейнджеры
    Могучие рейнджеры скачать торрент
    Могучие рейнджеры смотреть онлайн
    Cкачать фильм Могучие рейнджеры бесплатно
    Могучие рейнджеры скачать торрент в хорошем качестве
    Могучие рейнджеры смотреть онлайн бесплатно в хорошем качестве


    Вы не можете начинать темы
    Вы не можете отвечать на сообщения
    Вы не можете редактировать свои сообщения
    Вы не можете удалять свои сообщения
    Вы не можете голосовать в опросах
    Вы не можете прикреплять файлы к сообщениям
    Вы можете скачивать файлы