Ссылка на приватное зеркало всего за 1$. Внимание количество ограничено!!!

OK

1+1

iTunes

мы

OK

1

WEB-DLRip

Джокер

Пифагор

Ведьмак / The Witcher сериал

Лицензия

ПШазам

ОК

Оно 2

iTunes

30
pack

Вам бонус

ВАЖНО

!!Акция!!

Alien_RageХит недели

RePack

Resident Evil 21

ИГРА 18+

pack

RePack

jed

!!Акция!!

Alien_Rage

RePack

fifa19

RePack

Assassins Creed: Odyssey

RePack

NEED FOR SPEED™ PAYBACK

4 сезон

9 сезон

Бесстыжие 9 сезон

Все сериалы

все сериалы на PB.wtf

RePack

FAR CRY 5
  

Мой деверь - псих / Psycho Brother In-Law (Хосе Монтесинос) [2017, Триллер, WEBRip 720p] MVO ["Синема УС"] pb.wtf

Мой деверь - псих через торрент pb.wtf

Размер: 2.83 GB | Добавлен: 1 год 7 мес. назад | Торрент скачан:11 раз
Скачать  

23-05-2018 15:59 Мой деверь - псих Скачать торрент  

Мой деверь - псих / Psycho Brother In-LawГод выпуска: 2017
Страна: США, Asylum
Жанр: Триллер
Продолжительность: 01:23:16
Перевод: Любительский (многоголосый) | "Синема УС"
Субтитры: отсутствуют

Режиссер: Хосе Монтесинос

rating

В ролях:

Бриттани Фалардо, Зак Голд, Майк Дафф, Меган Браун, Саманта Боулинг, Билли Миде, Дайсун Кон-Уильямс, Марк Херрманн, Рик Ласкет, Виктория Ма

Описание:

Кейт несказанно рада тому, что их семью навестил брат её мужа, Дэвид, с которым никто не виделся уже много лет. Муж Кейт, Эрик, целыми днями пропадает на работе , поэтому присутствие заботливого и обходительного Дэйва пробуждает в Кейт новые чувства. Вот только со временем Кейт понимает , что Дэвид совсем не тот, кем кажется на первый взгляд, и его одержимость женой и дочерью брата начинают пугать всех вокруг.

Качество: WEBRip 720p
Формат: MKV

Видео: h.264, 4 477 Кбит/с, 1280x720
Аудио#1: Русский (AC3, 2 ch, 384 Кбит/с)
скриншот  скриншот  скриншот  

Общее
Уникальный идентификатор : 246788875999389661017877122841232174401 (0xB9A9CF01E8E05467913812FD5DCA6D41)
Полное имя : F:\Psycho.Brother.In.Law.2018.P.HDTV.72Op.mkv
Формат : Matroska
Версия формата : Version 2
Размер файла : 2,83 Гбайт
Продолжительность : 1 ч. 23 м.
Режим общего битрейта : Переменный
Общий поток : 4863 Кбит/сек
Дата кодирования : UTC 2018-05-22 19:24:07
Программа кодирования : mkvmerge v8.3.0 ('Over the Horizon') 64bit
Библиотека кодирования : libebml v1.3.1 + libmatroska v1.4.2

Видео
Идентификатор : 1
Формат : AVC
Формат/Информация : Advanced Video Codec
Профиль формата : High@L4.1
Параметр CABAC формата : Да
Параметр RefFrames формата : 4 кадра
Идентификатор кодека : V_MPEG4/ISO/AVC
Продолжительность : 1 ч. 23 м.
Вид битрейта : Переменный
Битрейт : 4477 Кбит/сек
Максимальный битрейт : 5000 Кбит/сек
Ширина : 1280 пикселей
Высота : 720 пикселей
Соотношение сторон : 16:9
Режим частоты кадров : Постоянный
Частота кадров : 23,976 (24000/1001) кадра/сек
Стандарт вещания : Component
Цветовое пространство : YUV
Субдискретизация насыщенности : 4:2:0
Битовая глубина : 8 бит
Тип развёртки : Прогрессивная
Бит/(Пиксели*Кадры) : 0.198
Размер потока : 2,55 Гбайт (90%)
Default : Да
Forced : Нет
Цветовой диапазон : Limited
Основные цвета : BT.709
Характеристики трансфера : BT.709
Коэффициенты матрицы : BT.709

Аудио
Идентификатор : 2
Формат : AC-3
Формат/Информация : Audio Coding 3
Расширение режима : CM (complete main)
Параметр Endianness формата : Big
Идентификатор кодека : A_AC3
Продолжительность : 1 ч. 23 м.
Вид битрейта : Постоянный
Битрейт : 384 Кбит/сек
Каналы : 2 канала
Расположение каналов : Front: L R
Частота : 48,0 КГц
Частота кадров : 31,250 кадров/сек (1536 spf)
Метод сжатия : С потерями
Размер потока : 229 Мбайт (8%)
Default : Да
Forced : Нет

pb.wtf



Скачать Мой деверь - псих через торрент http://img12.lostpic.net/2018/05/23/3dad975f4d4e24d5679b85515947556c.jpg Скачать фильм Мой деверь - псих через торрент бесплантно в хорошем качестве Описание: Кейт несказанно рада тому, что их семью навестил брат её мужа, Дэвид, с которым никто не виделся уже много лет. Муж Кейт, Эрик, ... 8.2 10 5
Торрент: Зарегистрирован [2018-05-23 15:59] · скачан: 11 раз
Статус: T временная
Размер: 2.83 GB
Как cкачать? Как скачать Мой деверь - псих через торрент | qTorrent

% Раздел Тема Автор DL S | L
T Фильмы (мультфильмы) cо спонсором показа (Новинки AVI/MKV) [ 1.37 GB ] Мой деверь - псих / Psycho Brother In-Law [2017 WEBRip] MVO ["Синема УС"] bober100 Скачать
1 | 0

28-11-2019 20:33  

Отключить всю рекламу на сайте


    Дорогой пользователь! Огромная просьба, поблагодарите релизера, оцените раздачу и оставьте свои комментарий, если Вы скачали Мой деверь - псих через торрент бесплатно! Внесите свою лепту в развитие PiratBit!
    Комментировать посты могут только пользователи прошедшие не сложную регистрацию
    Показать сообщения:    

    Мой деверь - псих через торрент
    Скачать бесплатно Мой деверь - псих
    Мой деверь - псих скачать торрент
    Мой деверь - псих смотреть онлайн
    Cкачать фильм Мой деверь - псих бесплатно
    Мой деверь - псих скачать торрент в хорошем качестве
    Мой деверь - псих смотреть онлайн бесплатно в хорошем качестве


    Вы не можете начинать темы
    Вы не можете отвечать на сообщения
    Вы не можете редактировать свои сообщения
    Вы не можете удалять свои сообщения
    Вы не можете голосовать в опросах
    Вы не можете прикреплять файлы к сообщениям
    Вы можете скачивать файлы