Ссылка на приватное зеркало нашего сайта всего за 1$. Внимание количество ограничено!!!

2 сезон

iTunes

1 сезон

1

2 сезон

2 сезон

iTunes

1 сезон

RePack

30

Ultimate

ВАЖНО

ИГРА 18+

pack

RePack

MK11
pack

Забери бонус

RePack

jed

!!Акция!!

Alien_Rage

RePack

fifa19

RePack

Assassins Creed: Odyssey

RePack

NEED FOR SPEED™ PAYBACK

4 сезон

9 сезон

Бесстыжие 9 сезон

Все сериалы

все сериалы на PB.wtf

RePack

FAR CRY 5
  

Безопасность / Safe / Сезон: 1 / Серии: 1-8 из 8 (Джулия Форд, Дэниэл О Хара, Дэниэл Неттхейм) [2018, драма, WEBRip 720p] MVO [Jaskier] pb.wtf

Безопасность через торрент pb.wtf

Размер: 7.18 GB | Добавлен: 2 года 6 мес. назад | Торрент скачан:14 раз
Скачать  

23-05-2018 16:23 Безопасность Скачать торрент  

Безопасность / Safe
Год выпуска: 2018
Страна: Великобритания
Жанр: драма
Продолжительность: ~ 00:42:00
Перевод: Профессиональный (многоголосый, закадровый) | Jaskier
Субтитры: отсутствуют

Режиссер: Джулия Форд, Дэниэл О Хара, Дэниэл Неттхейм

rating

В ролях:

Аманда Аббингтон, Ханна Артертон, Луис Гриторекс, Майкл С. Холл, Raj Paul, Чук Сибтайн, Хиро Файнс-Тиффин, Фредди Торп, Тайлер Конти, Кэти Кармайкл

Описание:

Сюжет восьмисерийного триллера вращается вокруг британца Тома (Холл) — детского хирурга и вдовствующего отца двоих дочерей, Дженни и Кэрри. Однажды Дженни, отношения которой с папой оставляют желать лучшего, отправляется на вечеринку и бесследно пропадает. Это событие становится началом сущего кошмара не только для семьи Тома, но и для всего городка, обитатели которого до сей поры жили в полной уверенности, что у них тут вполне безопасно. Выяснится, что страшные тайны имеются не только у подростков, но и у благопристойных взрослых горожан, и еще надо выяснить, чьи секреты страшнее.

Качество: WEBRip 720p
Формат: MKV

Видео: ~ 2300 kbps, 1280x534, 25 fps
Аудио#1 Rus: AC3, 6 ch, 384 kbps
Аудио#2 Eng: AC3, 6 ch, 384 kbps
скриншот   скриншот   скриншот  

Общее
Уникальный идентификатор : 179063153682131248424529681875699268781 (0x86B64F18162E42528C89109AA8A47CAD)
Полное имя : E:\Safe. Season 1 (WEBRip l 720p l Jaskier)\Safe.S01E01.720p.NF.DD5.1.x264-Jaskier.mkv
Формат : Matroska
Версия формата : Version 2
Размер файла : 890 Мбайт
Продолжительность : 41 м. 42 с.
Общий поток : 2982 Кбит/сек
Дата кодирования : UTC 2018-05-23 15:04:59
Программа кодирования : mkvmerge v7.8.0 ('River Man') 32bit built on Apr 3 2015 12:11:22
Библиотека кодирования : libebml v1.3.1 + libmatroska v1.4.2

Видео
Идентификатор : 1
Формат : AVC
Формат/Информация : Advanced Video Codec
Профиль формата : High@L4.1
Настройки формата : CABAC / 5 Ref Frames
Параметр CABAC формата : Да
Параметр RefFrames формата : 5 кадров
Идентификатор кодека : V_MPEG4/ISO/AVC
Продолжительность : 41 м. 42 с.
Битрейт : 2155 Кбит/сек
Ширина : 1280 пикселей
Высота : 534 пикселя
Соотношение сторон : 2,40:1
Соотношение сторон в оригинале : 2,40:1
Режим частоты кадров : Постоянный
Частота кадров : 25,000 кадров/сек
Цветовое пространство : YUV
Субдискретизация насыщенности : 4:2:0
Битовая глубина : 8 бит
Тип развёртки : Прогрессивная
Бит/(Пиксели*Кадры) : 0.126
Размер потока : 643 Мбайт (72%)
Библиотека кодирования : x264 core 155 r2901 7d0ff22
Настройки программы : cabac=1 / ref=5 / deblock=1:-3:-3 / analyse=0x3:0x113 / me=hex / subme=8 / psy=1 / psy_rd=1.00:0.15 / mixed_ref=1 / me_range=16 / chroma_me=1 / trellis=2 / 8x8dct=1 / cqm=0 / deadzone=21,11 / fast_pskip=0 / chroma_qp_offset=-2 / threads=17 / lookahead_threads=2 / sliced_threads=0 / nr=0 / decimate=1 / interlaced=0 / bluray_compat=0 / constrained_intra=0 / bframes=3 / b_pyramid=2 / b_adapt=1 / b_bias=0 / direct=3 / weightb=1 / open_gop=0 / weightp=2 / keyint=250 / keyint_min=25 / scenecut=40 / intra_refresh=0 / rc_lookahead=50 / rc=crf / mbtree=1 / crf=18.0 / qcomp=0.60 / qpmin=0 / qpmax=69 / qpstep=4 / ip_ratio=1.40 / aq=3:0.80
Язык : English
Default : Да
Forced : Нет
Цветовой диапазон : Limited
Коэффициенты матрицы : BT.709

Аудио #1
Идентификатор : 2
Формат : AC-3
Формат/Информация : Audio Coding 3
Идентификатор кодека : A_AC3
Продолжительность : 41 м. 42 с.
Вид битрейта : Постоянный
Битрейт : 384 Кбит/сек
Каналы : 6 каналов
Расположение каналов : Front: L C R, Side: L R, LFE
Частота : 48,0 КГц
Частота кадров : 31,250 кадров/сек (1536 SPF)
Битовая глубина : 16 бит
Метод сжатия : С потерями
Размер потока : 115 Мбайт (13%)
Заголовок : Jaskier
Язык : Russian
ServiceKind/String : Complete Main
Default : Да
Forced : Нет

Аудио #2
Идентификатор : 3
Формат : AC-3
Формат/Информация : Audio Coding 3
Идентификатор кодека : A_AC3
Продолжительность : 41 м. 42 с.
Вид битрейта : Постоянный
Битрейт : 384 Кбит/сек
Каналы : 6 каналов
Расположение каналов : Front: L C R, Side: L R, LFE
Частота : 48,0 КГц
Частота кадров : 31,250 кадров/сек (1536 SPF)
Битовая глубина : 16 бит
Метод сжатия : С потерями
Размер потока : 115 Мбайт (13%)
Язык : English
ServiceKind/String : Complete Main
Default : Нет
Forced : Нет

pb.wtf



Скачать Безопасность через торрент http://img12.lostpic.net/2018/05/18/f76d1a70ab8e70eb6a229343b0da7d62.png Скачать фильм Безопасность через торрент бесплантно в хорошем качестве Описание: Сюжет восьмисерийного триллера вращается вокруг британца Тома (Холл) — детского хирурга и вдовствующего отца двоих дочерей, ... 10 10 2
Торрент: Зарегистрирован [2018-05-23 16:23] · скачан: 14 раз
Статус: √ проверено
Размер: 7.18 GB
Как cкачать? Как скачать Безопасность через торрент | qTorrent

% Раздел Тема Автор DL S | L
Зарубежные сериалы [ 11.15 GB ] Безопасность / Safe / Сезон: 1 / Серии: 1-8 из 8 [2018 WEBRip 1080p] MVO [Good People] bober100 Скачать
1 | 0
Зарубежные сериалы [ 3.91 GB ] Безопасность / Safe / Сезон: 1 / Серии: 1-8 из 8 [2018 WEBRip] MVO [Good People] bober100 Скачать
1 | 0
Зарубежные сериалы [ 7.16 GB ] Безопасность / Safe / Сезон: 1 / Серии: 1-8 из 8 [2018 WEBRip 720p] MVO [LostFilm] bober100 Скачать
1 | 0
Зарубежные сериалы [ 11.14 GB ] Безопасность / Safe / Сезон: 1 / Серии: 1-8 из 8 [2018 WEBRip 1080p] [DVO] killermax2013 Скачать
1 | 0
Зарубежные сериалы [ 3.92 GB ] Безопасность / Safe / Сезон: 1 / Серии: 1-8 из 8 [2018 WEBRip] MVO [Jaskier] bober100 Скачать
1 | 0
Зарубежные сериалы [ 11.14 GB ] Безопасность / Safe / Сезон: 1 / Серии: 1-8 из 8 [2018 WEBRip 1080p] MVO [Jaskier] bober100 Скачать
1 | 0
Зарубежные сериалы [ 7.18 GB ] Безопасность / Safe / Сезон: 1 / Серии: 1-8 из 8 [2018 WEBRip 720p] MVO [NewStudio] bober100 Скачать
1 | 0

28-11-2019 20:33  

Отключить всю рекламу на сайте

    Дорогой пользователь! Огромная просьба, поблагодарите релизера, оцените раздачу и оставьте свои комментарий, если Вы скачали Безопасность через торрент бесплатно! Внесите свою лепту в развитие PiratBit!
    Комментировать посты могут только пользователи прошедшие не сложную регистрацию
    Показать сообщения:    

    Безопасность через торрент
    Скачать бесплатно Безопасность
    Безопасность скачать торрент
    Безопасность смотреть онлайн
    Cкачать фильм Безопасность бесплатно
    Безопасность скачать торрент в хорошем качестве
    Безопасность смотреть онлайн бесплатно в хорошем качестве


    Вы не можете начинать темы
    Вы не можете отвечать на сообщения
    Вы не можете редактировать свои сообщения
    Вы не можете удалять свои сообщения
    Вы не можете голосовать в опросах
    Вы не можете прикреплять файлы к сообщениям
    Вы можете скачивать файлы