Ссылка на приватное зеркало всего за 1$. Внимание количество ограничено!!!

OK

1+1

iTunes

мы

OK

1

WEB-DLRip

Джокер

Пифагор

Ведьмак / The Witcher сериал

iTunes

ПШазам

ОК

Оно 2

iTunes

30
pack

Вам бонус

ВАЖНО

!!Акция!!

Alien_RageХит недели

RePack

Resident Evil 21

ИГРА 18+

pack

RePack

jed

RePack

fifa19

RePack

Assassins Creed: Odyssey

RePack

NEED FOR SPEED™ PAYBACK

4 сезон

9 сезон

Бесстыжие 9 сезон

Все сериалы

все сериалы на PB.wtf

RePack

FAR CRY 5
  

Мамочка, будь моей / Mommy Be Mine (Джон Берд) [2018, Триллер, WEBRip 720p] MVO ["Синема УС"] pb.wtf

Мамочка, будь моей через торрент pb.wtf

Размер: 2.93 GB | Добавлен: 1 год 8 мес. назад | Торрент скачан:16 раз
Скачать  

23-05-2018 17:01 Мамочка, будь моей Скачать торрент  

Мамочка, будь моей / Mommy Be MineГод выпуска: 2018
Страна: США
Жанр: Триллер
Продолжительность: 01:26:32
Перевод: Любительский (многоголосый) | "Синема УС"
Субтитры: отсутствуют

Режиссер: Джон Берд

rating

В ролях:

Арианна Цукер, Ава Локлир, Сьерра-Понд, Шон Кристиан, Меган МакГаун, Кэмерон Геллман, Хизер Анкени

Описание:

После исчезновения своей дочери главная героиня понимает, что с подругой дочки всё не так радужно, как казалось на первый взгляд. Выясняется, что у девочки темное прошлое, и она не остановится ни перед чем, пытаясь удовлетворить свою отчаянную потребность в материнской любви.

Качество: WEBRip 720p
Формат: MKV

Видео: h.264, 4468 kb/s, 1280x720
Аудио#1: Русский (AC3, 2 ch, 384 Кбит/с)
скриншот  скриншот  скриншот  

Общее
Уникальный идентификатор : 174059592664712181329615111021631734196 (0x82F2A87D4F671AD2A23ED2C3246D81B4)
Полное имя : F:\Mommy.Be.Mine.2018.P.HDTV.72Op_KOSHARA.mkv
Формат : Matroska
Версия формата : Version 2
Размер файла : 2,93 Гбайт
Продолжительность : 1 ч. 26 м.
Режим общего битрейта : Переменный
Общий поток : 4854 Кбит/сек
Дата кодирования : UTC 2018-05-22 17:58:46
Программа кодирования : mkvmerge v8.3.0 ('Over the Horizon') 64bit
Библиотека кодирования : libebml v1.3.1 + libmatroska v1.4.2

Видео
Идентификатор : 1
Формат : AVC
Формат/Информация : Advanced Video Codec
Профиль формата : High@L4.1
Параметр CABAC формата : Да
Параметр RefFrames формата : 4 кадра
Идентификатор кодека : V_MPEG4/ISO/AVC
Продолжительность : 1 ч. 26 м.
Вид битрейта : Переменный
Битрейт : 4468 Кбит/сек
Максимальный битрейт : 5000 Кбит/сек
Ширина : 1280 пикселей
Высота : 720 пикселей
Соотношение сторон : 16:9
Режим частоты кадров : Постоянный
Частота кадров : 23,976 (24000/1001) кадра/сек
Стандарт вещания : Component
Цветовое пространство : YUV
Субдискретизация насыщенности : 4:2:0
Битовая глубина : 8 бит
Тип развёртки : Прогрессивная
Бит/(Пиксели*Кадры) : 0.198
Размер потока : 2,64 Гбайт (90%)
Default : Да
Forced : Нет
Цветовой диапазон : Limited
Основные цвета : BT.709
Характеристики трансфера : BT.709
Коэффициенты матрицы : BT.709

Аудио
Идентификатор : 2
Формат : AC-3
Формат/Информация : Audio Coding 3
Расширение режима : CM (complete main)
Параметр Endianness формата : Big
Идентификатор кодека : A_AC3
Продолжительность : 1 ч. 26 м.
Вид битрейта : Постоянный
Битрейт : 384 Кбит/сек
Каналы : 2 канала
Расположение каналов : Front: L R
Частота : 48,0 КГц
Частота кадров : 31,250 кадров/сек (1536 spf)
Метод сжатия : С потерями
Размер потока : 238 Мбайт (8%)
Default : Да
Forced : Нет

pb.wtf



Скачать Мамочка, будь моей через торрент http://img12.lostpic.net/2018/05/23/738d8259acaf07aaa0d9ce7e2b8d2ccb.jpg Скачать фильм Мамочка, будь моей через торрент бесплантно в хорошем качестве Описание: После исчезновения своей дочери главная героиня понимает, что с подругой дочки всё не так радужно, как казалось на первый взгляд. ... 7 10 3
Торрент: Зарегистрирован [2018-05-23 17:01] · скачан: 16 раз
Статус: T временная
Размер: 2.93 GB
Как cкачать? Как скачать Мамочка, будь моей через торрент | qTorrent

% Раздел Тема Автор DL S | L
T Фильмы (мультфильмы) cо спонсором показа (Новинки AVI/MKV) [ 1.37 GB ] Мамочка будь моей / Mommy Be Mine [2018 WEBRip] MVO ["Синема УС"] bober100 Скачать
1 | 0

28-11-2019 20:33  

Отключить всю рекламу на сайте

    Дорогой пользователь! Огромная просьба, поблагодарите релизера, оцените раздачу и оставьте свои комментарий, если Вы скачали Мамочка, будь моей через торрент бесплатно! Внесите свою лепту в развитие PiratBit!
    Комментировать посты могут только пользователи прошедшие не сложную регистрацию
    Показать сообщения:    

    Мамочка, будь моей через торрент
    Скачать бесплатно Мамочка, будь моей
    Мамочка, будь моей скачать торрент
    Мамочка, будь моей смотреть онлайн
    Cкачать фильм Мамочка, будь моей бесплатно
    Мамочка, будь моей скачать торрент в хорошем качестве
    Мамочка, будь моей смотреть онлайн бесплатно в хорошем качестве


    Вы не можете начинать темы
    Вы не можете отвечать на сообщения
    Вы не можете редактировать свои сообщения
    Вы не можете удалять свои сообщения
    Вы не можете голосовать в опросах
    Вы не можете прикреплять файлы к сообщениям
    Вы можете скачивать файлы