Ссылка на приватное зеркало нашего сайта всего за 1$. Внимание количество ограничено!!!

2 сезон

iTunes

1 сезон

1

2 сезон

2 сезон

iTunes

1 сезон

RePack

30

Новинка

ВАЖНО

ИГРА 18+

pack

RePack

MK11
pack

Забери бонус

RePack

jed

!!Акция!!

Alien_Rage

RePack

fifa19

RePack

Assassins Creed: Odyssey

RePack

NEED FOR SPEED™ PAYBACK

4 сезон

9 сезон

Бесстыжие 9 сезон

Все сериалы

все сериалы на PB.wtf

RePack

FAR CRY 5
  

Анон / Anon (Эндрю Никкол) [2018, фантастика, триллер, WEB-DL 1080p] 2xMVO [HDrezka Studio, AlphaProject] + DUB [iTunes] pb.wtf

Анон через торрент pb.wtf

Размер: 4.17 GB | Добавлен: 2 года 6 мес. назад | Торрент скачан:1414 раз
Скачать  

23-05-2018 19:10 Анон Скачать торрент  

Анон / Anon
Год выпуска: 2018
Страна: Германия, США
Жанр: фантастика, триллер
Продолжительность: 01:40:10
Перевод:

#1: Дублированный | iTunes
#2: Профессиональный (многоголосый) | HDRezka studio
#3: Любительский многоголосый | AlphaProject

Субтитры: Русские (forced, full), английские

Режиссер: Эндрю Никкол

rating

В ролях:

Клайв Оуэн (Sal Frieland), Аманда Сайфред (Anon), Колм Фиор (Charles Gattis), Джо Пинг (Lester Hagen), Марк О’Брайэн (Cyrus Frear), Иддо Голдберг (Josef Kenik), Конрад Коутс (Detective Fuchs), Мэйко Нгуйен (Detective Dyer), Соня Уолгер (Kristen), Элисон Бэт (Krystal), Сара Митич (Shirley)

Описание:

Идеальное общество будущего: режим тотального надзора, отсутствие личной жизни, приватных территорий и гражданских прав. Казалось бы, в полностью контролируемом государстве нет места ошибкам и правонарушениям. Но однажды детектив Сол Фриленд знакомится с девушкой, которая не числится в базах данных. Перед копом приоткрывается дверь преступного мира новой эры…

Качество: WEB-DL 1080p
Формат: MKV

Видео: MPEG-4 AVC, 1920x1080, 4640 Kbit/s, 24.000 fps
Аудио#1: 48 kHz, AC3, 5.1, 384 Kbps | iTunes | RUS |
Аудио#2: 48 kHz, AC3, 2.0, 192 Kbps | HDRezka Studio | RUS |
Аудио#3: 48 kHz, AC3, 5.1, 384 Kbps | AlphaProject | RUS |
Аудио#4: 48 kHz, AC3, 5.1, 384 Kbps | Оригинал | ENG |
скриншот   скриншот   скриншот   скриншот   скриншот  

General
Unique ID : 219608959790094220072503214456842821518 (0xA53725AD08D75C64A7CC059F15951F8E)
Complete name : C:Video111Anon.2018.WEB-DLRip.1080p.EXKinoRay.mkv
Format : Matroska
Format version : Version 4 / Version 2
File size : 4.17 GiB
Duration : 1 h 40 min
Overall bit rate mode : Variable
Overall bit rate : 5 959 kb/s
Movie name : Anon 2018 from ExKinoRay #селезень
Encoded date : UTC 2018-05-23 18:40:55
Writing application : mkvmerge v7.3.0 ('Nouages') 64bit built on Oct 22 2014 18:53:34
Writing library : libebml v1.3.0 + libmatroska v1.4.1

Video
ID : 1
Format : AVC
Format/Info : Advanced Video Codec
Format profile : Main@L4
Format settings : CABAC / 3 Ref Frames
Format settings, CABAC : Yes
Format settings, ReFrames : 3 frames
Codec ID : V_MPEG4/ISO/AVC
Duration : 1 h 40 min
Bit rate mode : Variable
Bit rate : 4 640 kb/s
Maximum bit rate : 6 960 kb/s
Width : 1 920 pixels
Height : 1 080 pixels
Display aspect ratio : 16:9
Frame rate mode : Constant
Frame rate : 24.000 FPS
Color space : YUV
Chroma subsampling : 4:2:0
Bit depth : 8 bits
Scan type : Progressive
Bits/(Pixel*Frame) : 0.093
Stream size : 3.23 GiB (77%)
Writing library : x264 core 148 r2715 7e75228
Encoding settings : cabac=1 / ref=3 / deblock=1:0:0 / analyse=0x1:0x111 / me=umh / subme=10 / psy=1 / psy_rd=1.00:0.00 / mixed_ref=1 / me_range=24 / chroma_me=1 / trellis=2 / 8x8dct=0 / cqm=0 / deadzone=21,11 / fast_pskip=1 / chroma_qp_offset=-2 / threads=8 / lookahead_threads=1 / sliced_threads=0 / nr=0 / decimate=1 / interlaced=0 / bluray_compat=0 / stitchable=1 / constrained_intra=0 / bframes=2 / b_pyramid=0 / b_adapt=2 / b_bias=0 / direct=3 / weightb=1 / open_gop=0 / weightp=2 / keyint=48 / keyint_min=25 / scenecut=0 / intra_refresh=0 / rc_lookahead=48 / rc=2pass / mbtree=1 / bitrate=4640 / ratetol=1.0 / qcomp=0.50 / qpmin=6 / qpmax=51 / qpstep=4 / cplxblur=20.0 / qblur=0.5 / vbv_maxrate=6960 / vbv_bufsize=9280 / nal_hrd=vbr / filler=0 / ip_ratio=1.40 / aq=1:1.00
Language : English
Default : Yes
Forced : No

Audio #1
ID : 2
Format : AC-3
Format/Info : Audio Coding 3
Codec ID : A_AC3
Duration : 1 h 39 min
Bit rate mode : Constant
Bit rate : 384 kb/s
Channel(s) : 6 channels
Channel positions : Front: L C R, Side: L R, LFE
Sampling rate : 48.0 kHz
Frame rate : 31.250 FPS (1536 SPF)
Bit depth : 16 bits
Compression mode : Lossy
Stream size : 274 MiB (6%)
Title : iTunes
Language : Russian
Service kind : Complete Main
Default : Yes
Forced : Yes

Audio #2
ID : 3
Format : AC-3
Format/Info : Audio Coding 3
Codec ID : A_AC3
Duration : 1 h 40 min
Bit rate mode : Constant
Bit rate : 192 kb/s
Channel(s) : 2 channels
Channel positions : Front: L R
Sampling rate : 48.0 kHz
Frame rate : 31.250 FPS (1536 SPF)
Bit depth : 16 bits
Compression mode : Lossy
Stream size : 138 MiB (3%)
Title : MVO - HDRezka
Language : Russian
Service kind : Complete Main
Default : No
Forced : No

Audio #3
ID : 4
Format : AC-3
Format/Info : Audio Coding 3
Codec ID : A_AC3
Duration : 1 h 40 min
Bit rate mode : Constant
Bit rate : 384 kb/s
Channel(s) : 6 channels
Channel positions : Front: L C R, Side: L R, LFE
Sampling rate : 48.0 kHz
Frame rate : 31.250 FPS (1536 SPF)
Bit depth : 16 bits
Compression mode : Lossy
Stream size : 275 MiB (6%)
Title : MVO - AlphaProject (редакция Ash61)
Language : Russian
Service kind : Complete Main
Default : No
Forced : No

Audio #4
ID : 5
Format : AC-3
Format/Info : Audio Coding 3
Codec ID : A_AC3
Duration : 1 h 40 min
Bit rate mode : Constant
Bit rate : 384 kb/s
Channel(s) : 6 channels
Channel positions : Front: L C R, Side: L R, LFE
Sampling rate : 48.0 kHz
Frame rate : 31.250 FPS (1536 SPF)
Bit depth : 16 bits
Compression mode : Lossy
Stream size : 275 MiB (6%)
Title : Original
Language : English
Service kind : Complete Main
Default : No
Forced : No

Text #1
ID : 6
Format : UTF-8
Codec ID : S_TEXT/UTF8
Codec ID/Info : UTF-8 Plain Text
Duration : 1 h 28 min
Bit rate : 3 b/s
Count of elements : 58
Stream size : 2.44 KiB (0%)
Title : Forced (от Ash61)
Language : Russian
Default : Yes
Forced : Yes

Text #2
ID : 7
Format : UTF-8
Codec ID : S_TEXT/UTF8
Codec ID/Info : UTF-8 Plain Text
Duration : 1 h 30 min
Bit rate : 68 b/s
Count of elements : 918
Stream size : 45.1 KiB (0%)
Title : Full
Language : Russian
Default : No
Forced : No

Text #3
ID : 8
Format : UTF-8
Codec ID : S_TEXT/UTF8
Codec ID/Info : UTF-8 Plain Text
Duration : 1 h 29 min
Bit rate : 38 b/s
Count of elements : 912
Stream size : 25.2 KiB (0%)
Title : SDH
Language : English
Default : No
Forced : No

Menu
00:00:00.000 : en:Chapter 01
00:09:52.925 : en:Chapter 02
00:24:26.339 : en:Chapter 03
00:34:52.381 : en:Chapter 04
00:46:55.270 : en:Chapter 05
01:02:34.792 : en:Chapter 06
01:12:38.645 : en:Chapter 07
01:27:47.512 : en:Chapter 08
01:34:12.772 : en:Chapter 09
01:46:46.024 : en:Chapter 10
01:56:19.389 : en:Chapter 11
02:04:48.397 : en:Chapter 12

pb.wtf



Скачать Анон через торрент http://pic1.kartinco.top/images/11/hwr6h.jpg Скачать фильм Анон через торрент бесплантно в хорошем качестве Описание: Идеальное общество будущего: режим тотального надзора, отсутствие личной жизни, приватных территорий и гражданских прав. Казалось ... 9.7 10 32
Info! Золотая раздача, скачанное не засчитывается.
Торрент: Зарегистрирован [2018-05-23 19:10] · скачан: 1 414 раз
Статус: √ проверено
Размер: 4.17 GB
Как cкачать? Как скачать Анон через торрент | qTorrent

% Раздел Тема Автор DL S | L
Фильмы (HD 720p, 1080p) (48-60 fps) [ 11.28 GB ] Клуб анонимных киллеров / Killers Anonymous [2019 BDRip 1080p 60 fps] sheker187 Скачать
1 | 0
Фильмы [HD 720p, 1080p] (Хороший звук DUB, MVO) [ 12.45 GB ] Анонимные романтики / Les émotifs anonymes [2010 Мело BDRip 1080p] MVO bober100 Скачать
1 | 0
Фильмы [HD 720p, 1080p] (Хороший звук DUB, MVO) [ 6.46 GB ] Анонимные романтики / Les émotifs anonymes [2010 Мело BDRip 720p] MVO bober100 Скачать
1 | 0
Фильмы 2019-2020 [DVDrip, WEB-DLRip, HDrip] (DUB, MVO) [ 1.42 GB ] Клуб анонимных киллеров / Killers Anonymous [2019 BDRip] - Twi7ter Скачать
10 | 0
Порно фильмы без сюжета [ 2.36 GB ] Sex Addicts Anonymou / Анонимные Секс-Наркоманы [2019 All Sex Feature 544р WEB-DL] Venom Скачать
1 | 0
Фильмы [HD 720p, 1080p] (Хороший звук DUB, MVO) [ 4.04 GB ] Клуб анонимных киллеров / Killers Anonymous [2019 BDRip 720p] MVO - ExKinoRay Enigma2010 Скачать
10 | 0
Фильмы 2019-2020 [DVDrip, WEB-DLRip, HDrip] (DUB, MVO) [ 1.81 GB ] Клуб анонимных киллеров / Killers Anonymous [2019 BDRip-AVC] bober100 Скачать
5 | 0

28-11-2019 20:33  

Отключить всю рекламу на сайте

24-05-2018 15:31 Анон Скачать торрент  

По описанию полная муть!pb.wtf



24-05-2018 17:47 Анон Скачать торрент  

sidxxl77 писал(а):

По описанию полная муть!

а по просмотру ещё хуже!pb.wtf



30-06-2018 07:52 Анон Скачать торрент  

Фильм конечно не шедевр, сюжет растянут, но разок посмотреть можно.pb.wtf



    Дорогой пользователь! Огромная просьба, поблагодарите релизера, оцените раздачу и оставьте свои комментарий, если Вы скачали Анон через торрент бесплатно! Внесите свою лепту в развитие PiratBit!
    Комментировать посты могут только пользователи прошедшие не сложную регистрацию
    Показать сообщения:    

    Анон через торрент
    Скачать бесплатно Анон
    Анон скачать торрент
    Анон смотреть онлайн
    Cкачать фильм Анон бесплатно
    Анон скачать торрент в хорошем качестве
    Анон смотреть онлайн бесплатно в хорошем качестве


    Вы не можете начинать темы
    Вы не можете отвечать на сообщения
    Вы не можете редактировать свои сообщения
    Вы не можете удалять свои сообщения
    Вы не можете голосовать в опросах
    Вы не можете прикреплять файлы к сообщениям
    Вы можете скачивать файлы