Ссылка на приватное зеркало нашего сайта всего за 1$. Внимание количество ограничено!!!

2 сезон

iTunes

1 сезон

1

2 сезон

2 сезон

iTunes

1 сезон

RePack

30

Новинка

ВАЖНО

ИГРА 18+

pack

RePack

MK11
pack

Забери бонус

RePack

jed

!!Акция!!

Alien_Rage

RePack

fifa19

RePack

Assassins Creed: Odyssey

RePack

NEED FOR SPEED™ PAYBACK

4 сезон

9 сезон

Бесстыжие 9 сезон

Все сериалы

все сериалы на PB.wtf

RePack

FAR CRY 5
  

Кобра-Кай / Cobra Kai / Сезон: 1-2 / Серии: 1-20 из 20 (Джон Харвитц) [2018-2019, боевик, драма, комедия, семейный, WEB-DLRip] [MVO] (AlexFilm) pb.wtf

Кобра-Кай через торрент pb.wtf

Размер: 7.53 GB | Добавлен: 1 год 6 мес. назад | Торрент скачан:61 раз
Скачать  

23-05-2018 19:20 Кобра-Кай Скачать торрент  

Кобра Кай/ Cobra Kai Год выпуска: 2018-2019
Страна: США
Жанр: боевик, драма, комедия, семейный
Продолжительность: 1х ~00:27:00
Озвучание: Профессиональное (многоголосое закадровое) (AlexFilm)

Режиссеры: Джон Харвитц, Хейден Шлоссберг, Дженнифер Челотта

В ролях: Ральф Маччио, Уильям Забка, Кортни Хенгелер, Холо Маридуэньо, Тэннер Бьюкэнэн, Мэри Мэтилин Маусер, Джейкоб Бертран, Nichole Brown, Griffin Santopietro, Джанни Десенцо и др.

Описание: В прошлом хулиган, а ныне разорившийся неудачник, Джонни Лоуренс считает, что единственный его шанс вернуться к нормальной жизни — заново открыть печально известную школу карате «Кобра Кай». Попытка наладить свои дела сводит Джонни с Дэниелом ЛаРуссо — успешным мужчиной, который изо всех сил старается сохранять жизненную гармонию, которой когда-то учил его мистер Мияги. Встретившись вновь, Дэнни и Джонни пытаются избавиться от демонов прошлого и проблем настоящего единственным известным им способом — с помощью карате.

Релиз:



Качество: WEB-DLRip
Формат: AVI
Видео: 720x400 (16:9), 23.976 fps, XviD ~1400 kbps avg, 0.2 bit/pixel
Аудио Rus: 48 kHz, MPEG Layer 3, 2 ch, ~128.00 kbps avg
Аудио Eng: 48 kHz, MPEG Layer 3, 2 ch, ~128.00 kbps avg
Субтитры: нет
скриншот  скриншот  скриншот  
Format : AVI
Format/Info : Audio Video Interleave
File size : 360 MiB
Duration : 27 min 30 s
Overall bit rate : 1 827 kb/s
Writing application : VirtualDubMod 1.5.10.2 (build 2540/release)
Writing library : VirtualDubMod build 2540/release

Video
ID : 0
Format : MPEG-4 Visual
Format profile : Advanced Simple@L5
Format settings : BVOP2 / Custom Matrix
Format settings, BVOP : 2
Format settings, QPel : No
Format settings, GMC : No warppoints
Format settings, Matrix : Custom
Codec ID : XVID
Codec ID/Hint : XviD
Duration : 27 min 30 s
Bit rate : 1 557 kb/s
Width : 720 pixels
Height : 400 pixels
Display aspect ratio : 16:9
Frame rate : 23.976 (24000/1001) FPS
Color space : YUV
Chroma subsampling : 4:2:0
Bit depth : 8 bits
Scan type : Progressive
Compression mode : Lossy
Bits/(Pixel*Frame) : 0.226
Stream size : 306 MiB (85%)
Writing library : XviD 73

Audio #1
ID : 1
Format : MPEG Audio
Format version : Version 1
Format profile : Layer 3
Format settings : Joint stereo / MS Stereo
Codec ID : 55
Codec ID/Hint : MP3
Duration : 27 min 30 s
Bit rate mode : Constant
Bit rate : 128 kb/s
Channel(s) : 2 channels
Sampling rate : 48.0 kHz
Compression mode : Lossy
Stream size : 25.2 MiB (7%)
Alignment : Split accross interleaves
Interleave, duration : 42 ms (1.00 video frame)
Interleave, preload duratio : 500 ms

Audio #2
ID : 2
Format : MPEG Audio
Format version : Version 1
Format profile : Layer 3
Format settings : Joint stereo / MS Stereo
Codec ID : 55
Codec ID/Hint : MP3
Duration : 27 min 30 s
Bit rate mode : Constant
Bit rate : 128 kb/s
Channel(s) : 2 channels
Sampling rate : 48.0 kHz
Compression mode : Lossy
Stream size : 25.2 MiB (7%)
Alignment : Split accross interleaves
Interleave, duration : 42 ms (1.00 video frame)
Interleave, preload duratio : 500 ms
Внимание! Раздача ведётся путём добавления новых серий; при каждом добавлении создаётся новый торрент. Чтобы начать докачку новой серии, пользователям необходимо сделать следующее:
(1) остановить скачивание,
(2) удалить старый торрент у себя из клиента (старые серии удалять не надо),
(3) скачать новый торрент и запустить его у себя в клиенте вместо старого, при этом указать клиенту путь в старую папку куда и должно происходить скачивание новых серий.
Ваш клиент при этом должен произвести хеширование (проверку) старой папки (если не производит сам - помогите ему сделать это), и будет докачивать только те серии которых у вас ещё нет. Старые серии при этом не удаляются, а продолжают раздаваться!
Eсли вы уже удалили старые серии, то предотвратить повторную закачку старых серий можно, отжав галочку в соответствующих местах при запуске нового торрента. По возможности, желательно не удалять старые серии как можно дольше чтобы релизёр не столько продолжал раздавать старые серии, а смог сконцентрироваться на новых.
pb.wtf



Скачать Кобра-Кай через торрент http://i104.fastpic.ru/big/2018/0523/2c/00b08c1d8fdfd0515fbf1a737dd9e72c.jpg Скачать фильм Кобра-Кай через торрент бесплантно в хорошем качестве Описание: В прошлом хулиган, а ныне разорившийся неудачник, Джонни Лоуренс считает, что единственный его шанс вернуться к нормальной жизни ... 10 10 5
Торрент: Зарегистрирован [2019-05-10 13:06] · скачан: 61 раз
Статус: √ проверено
Размер: 7.53 GB
Как cкачать? Как скачать Кобра-Кай через торрент | qTorrent

% Раздел Тема Автор DL S | L
Зарубежные сериалы [ 2.06 GB ] Кобра Кай / Cobra Kai / Сезон: 2 / Серии: 1- из 10 [2019 WEB-DL 1080p] MVO [VSI Moscow] bober100 Скачать
1 | 0
Зарубежные сериалы [ 27.86 GB ] Кобра-Кай / Cobra Kai / Сезон: 2 / Серии: 1-10 из 10 [2019 WEB-DL 2160p] [MVO] killermax2013 Скачать
1 | 0
Зарубежные сериалы [ 13.7 GB ] Кобра-Кай / Cobra Kai / Сезон: 2 / Серии: 1-10 из 10 [2019 WEB-DL 1080p] [MVO] killermax2013 Скачать
2 | 0
Зарубежные сериалы [ 2.91 GB ] Кобра-Кай / Cobra Kai / Сезон: 2 / Серии: 1-10 из 10 [2019 WEBRip] [DVO] killermax2013 Скачать
1 | 0
Зарубежные сериалы [ 3.5 GB ] Кобра-Кай / Cobra Kai / Сезон: 2 / Серии: 1-10 из 10 [2019 WEB-DLRip] [MVO] killermax2013 Скачать
1 | 0

28-11-2019 20:33  

Отключить всю рекламу на сайте

    Дорогой пользователь! Огромная просьба, поблагодарите релизера, оцените раздачу и оставьте свои комментарий, если Вы скачали Кобра-Кай через торрент бесплатно! Внесите свою лепту в развитие PiratBit!
    Комментировать посты могут только пользователи прошедшие не сложную регистрацию
    Показать сообщения:    

    Кобра-Кай через торрент
    Скачать бесплатно Кобра-Кай
    Кобра-Кай скачать торрент
    Кобра-Кай смотреть онлайн
    Cкачать фильм Кобра-Кай бесплатно
    Кобра-Кай скачать торрент в хорошем качестве
    Кобра-Кай смотреть онлайн бесплатно в хорошем качестве


    Вы не можете начинать темы
    Вы не можете отвечать на сообщения
    Вы не можете редактировать свои сообщения
    Вы не можете удалять свои сообщения
    Вы не можете голосовать в опросах
    Вы не можете прикреплять файлы к сообщениям
    Вы можете скачивать файлы