Ссылка на приватное зеркало нашего сайта всего за 1$. Внимание количество ограничено!!!

2 сезон

iTunes

1 сезон

1

2 сезон

2 сезон

iTunes

1 сезон

RePack

30

Ultimate

ВАЖНО

ИГРА 18+

pack

RePack

MK11
pack

Забери бонус

RePack

jed

!!Акция!!

Alien_Rage

RePack

fifa19

RePack

Assassins Creed: Odyssey

RePack

NEED FOR SPEED™ PAYBACK

4 сезон

9 сезон

Бесстыжие 9 сезон

Все сериалы

все сериалы на PB.wtf

RePack

FAR CRY 5
  

Опасный бизнес / Gringo (Нэш Эдгертон) [2018, Боевик, комедия, криминал, WEB-DL 720p] DUB (rus, ukr) [iTunes] pb.wtf

Опасный бизнес через торрент pb.wtf

Размер: 4.03 GB | Добавлен: 2 года 6 мес. назад | Торрент скачан:728 раз
Скачать  

23-05-2018 20:21 Опасный бизнес Скачать торрент  

Опасный бизнес / Gringo
Год выпуска: 2018
Страна: США, Австралия
Жанр: Боевик, комедия, криминал
Продолжительность: 01:50:38
Перевод: Дублированный | iTunes
Субтитры: Английские

Режиссер: Нэш Эдгертон

rating

В ролях:

Джоэл Эдгертон, Шарлиз Терон, Дэвид Ойелоуо, Тэнди Ньютон, Башир Салахуддин, Гленн Кубота, Мелони Диас, Аманда Сайфред, Гарри Тредэвэй, Тео Таплитц

Описание:

Дерзкая длинноногая блондинка — она идеально подходит для опасного бизнеса. Однажды одному из ее подчиненных становится известна уникальная формула, за которой гоняется весь мир. Он решает инсценировать собственное похищение и потребовать выкуп у компании. Лучше этому умнику не рассчитывать на помощь своей эффектной начальницы, ведь для корпорации он предпочтительнее мертвый, чем живой.

Качество: WEB-DL 720p
Формат: MKV

Видео: MPEG-4 AVC, 1280x532, 4058 Kbit/s, 23.976 fps
Аудио#01: 48 kHz, AC3, 5.1, 384 Kbps | iTunes | RUS |
Аудио#02: 48 kHz, AC3, 5.1, 384 Kbps | iTunes | UKR |
Аудио#03: 48 kHz, AC3, 5.1, 384 Kbps | Оригинал | ENG |
скриншот   скриншот   скриншот  

General
Unique ID : 237590731822550680292377511700792300352 (0xB2BE4F7C714B98DC9990A44025575340)
Complete name : C:Video111Gringo.2018.WEB-DL.720p.ExKinoRay.mkv
Format : Matroska
Format version : Version 4 / Version 2
File size : 4.03 GiB
Duration : 1 h 50 min
Overall bit rate : 5 212 kb/s
Movie name : Gringo 2018 from ExKinoRay #селезень
Encoded date : UTC 2018-05-23 19:57:34
Writing application : mkvmerge v7.3.0 ('Nouages') 64bit built on Oct 22 2014 18:53:34
Writing library : libebml v1.3.0 + libmatroska v1.4.1

Video
ID : 1
Format : AVC
Format/Info : Advanced Video Codec
Format profile : Main@L3.1
Format settings : 2 Ref Frames
Format settings, CABAC : No
Format settings, ReFrames : 2 frames
Codec ID : V_MPEG4/ISO/AVC
Duration : 1 h 50 min
Bit rate : 4 058 kb/s
Width : 1 280 pixels
Height : 532 pixels
Display aspect ratio : 2.40:1
Frame rate mode : Constant
Frame rate : 23.976 (23976/1000) FPS
Color space : YUV
Chroma subsampling : 4:2:0
Bit depth : 8 bits
Scan type : Progressive
Bits/(Pixel*Frame) : 0.249
Stream size : 3.14 GiB (78%)
Language : English
Default : Yes
Forced : No
Color range : Limited
Color primaries : BT.709
Transfer characteristics : BT.709
Matrix coefficients : BT.709

Audio #1
ID : 2
Format : AC-3
Format/Info : Audio Coding 3
Codec ID : A_AC3
Duration : 1 h 50 min
Bit rate mode : Constant
Bit rate : 384 kb/s
Channel(s) : 6 channels
Channel positions : Front: L C R, Side: L R, LFE
Sampling rate : 48.0 kHz
Frame rate : 31.250 FPS (1536 SPF)
Bit depth : 16 bits
Compression mode : Lossy
Stream size : 304 MiB (7%)
Title : iTunes
Language : Russian
Service kind : Complete Main
Default : Yes
Forced : Yes

Audio #2
ID : 3
Format : AC-3
Format/Info : Audio Coding 3
Codec ID : A_AC3
Duration : 1 h 50 min
Bit rate mode : Constant
Bit rate : 384 kb/s
Channel(s) : 6 channels
Channel positions : Front: L C R, Side: L R, LFE
Sampling rate : 48.0 kHz
Frame rate : 31.250 FPS (1536 SPF)
Bit depth : 16 bits
Compression mode : Lossy
Stream size : 304 MiB (7%)
Title : iTunes
Language : Ukrainian
Service kind : Complete Main
Default : No
Forced : No

Audio #3
ID : 4
Format : AC-3
Format/Info : Audio Coding 3
Codec ID : A_AC3
Duration : 1 h 50 min
Bit rate mode : Constant
Bit rate : 384 kb/s
Channel(s) : 6 channels
Channel positions : Front: L C R, Side: L R, LFE
Sampling rate : 48.0 kHz
Frame rate : 31.250 FPS (1536 SPF)
Bit depth : 16 bits
Compression mode : Lossy
Stream size : 304 MiB (7%)
Title : Original
Language : English
Service kind : Complete Main
Default : No
Forced : No

Text
ID : 5
Format : UTF-8
Codec ID : S_TEXT/UTF8
Codec ID/Info : UTF-8 Plain Text
Duration : 1 h 44 min
Bit rate : 64 b/s
Count of elements : 1492
Stream size : 49.6 KiB (0%)
Language : English
Default : No
Forced : No

Menu
00:00:00.000 : en:1
00:02:30.025 : en:2
00:08:38.059 : en:3
00:14:50.639 : en:4
00:19:44.307 : en:5
00:26:12.445 : en:6
00:30:00.798 : en:7
00:34:13.926 : en:8
00:42:00.851 : en:9
00:49:15.952 : en:10
00:57:13.554 : en:11
01:02:58.190 : en:12
01:09:41.801 : en:13
01:16:22.201 : en:14
01:20:39.374 : en:15
01:25:55.106 : en:16
01:29:15.473 : en:17
01:33:47.953 : en:18
01:39:07.772 : en:19
01:43:29.909 : en:20
pb.wtf



Скачать Опасный бизнес через торрент http://img12.lostpic.net/2018/05/23/fa2970d20c3d08e4f0cf1e687c62eb29.jpg Скачать фильм Опасный бизнес через торрент бесплантно в хорошем качестве Описание: Дерзкая длинноногая блондинка — она идеально подходит для опасного бизнеса. Однажды одному из ее подчиненных становится известна ... 9.8 10 11
Info! Золотая раздача, скачанное не засчитывается.
Торрент: Зарегистрирован [2018-05-23 20:21] · скачан: 728 раз
Статус: √ проверено
Размер: 4.03 GB
Как cкачать? Как скачать Опасный бизнес через торрент | qTorrent

% Раздел Тема Автор DL S | L
Фильмы 2018 [DVDrip, WEB-DLRip, HDrip] (DUB, MVO) [ 2.52 GB ] Опасный бизнес / Gringo [2018 BDRip-AVC] - AVO [Есарев] - ExKinoRay Enigma2010 Скачать
2 | 0
Фильмы 2018 [DVDrip, WEB-DLRip, HDrip] (DUB, MVO) [ 1.41 GB ] Опасный бизнес / Gringo [2018 BDRip] DEVI Скачать
2 | 0
Фильмы (Blu-ray, BD-Remux, HDDVD) [ 32.96 GB ] Опасный бизнес / Gringo [2018 BD Remux 1080p] AVO [Д. Есарев] +DUB bober100 Скачать
1 | 0
Фильмы [HD 720p, 1080p] (Хороший звук DUB, MVO) [ 5.24 GB ] Опасный бизнес / Gringo [2018 BDRip 720p] DUB bober100 Скачать
1 | 0

28-11-2019 20:33  

Отключить всю рекламу на сайте

08-08-2018 09:47 Опасный бизнес Скачать торрент  

хороший фильмpb.wtf



    Дорогой пользователь! Огромная просьба, поблагодарите релизера, оцените раздачу и оставьте свои комментарий, если Вы скачали Опасный бизнес через торрент бесплатно! Внесите свою лепту в развитие PiratBit!
    Комментировать посты могут только пользователи прошедшие не сложную регистрацию
    Показать сообщения:    

    Опасный бизнес через торрент
    Скачать бесплатно Опасный бизнес
    Опасный бизнес скачать торрент
    Опасный бизнес смотреть онлайн
    Cкачать фильм Опасный бизнес бесплатно
    Опасный бизнес скачать торрент в хорошем качестве
    Опасный бизнес смотреть онлайн бесплатно в хорошем качестве


    Вы не можете начинать темы
    Вы не можете отвечать на сообщения
    Вы не можете редактировать свои сообщения
    Вы не можете удалять свои сообщения
    Вы не можете голосовать в опросах
    Вы не можете прикреплять файлы к сообщениям
    Вы можете скачивать файлы