новый адрес пиратбит piratbit
Мега распродажа FORZA HORIZON 4 ULTIMATE+ВСЕ DLC+ОНЛАЙН всего за 499р. 349 руб. (супер цена). Внимание количество ограничено!!!

iTunes

1+1

iTunes

мы

iTunes

1

iTunes

Чернобыль

iTunes

Ральф против интернета

Лицензия

ПШазам

Лицензия

Игра престолов

Лицензия

30
pack

ВАЖНО

!!Акция!!

Alien_RageХит недели

RePack

Resident Evil 21

ИГРА 18+

pack

RePack

Metro:Exodus

!!Акция!!

Alien_Rage

RePack

fifa19

RePack

Assassins Creed: Odyssey

RePack

NEED FOR SPEED™ PAYBACK

3 сезон

9 сезон

Бесстыжие 9 сезон

Все сериалы

все сериалы на PB.wtf

RePack

FAR CRY 5
Ребята, катастрофически не хватает 1900р. для оплаты серверов за Октябрь (всвязи с блокировками трафик упал в 3 раза), 1-2р., выручайте.
  

Пуаро Агаты Кристи. Убийство в Восточном Экспрессе / Agatha Christie's Poirot. Murder on the Orient Express (Филипп Мартин) [2010, триллер, драма, криминал, детектив, BDRip 720p by msltel] MVO pb.wtf

Пуаро Агаты Кристи. Убийство в Восточном Экспрессе через торрент pb.wtf

Размер: 4.25 GB | Добавлен: 1 год 5 мес. назад | Торрент скачан:55 раз
Скачать  

24-05-2018 06:57 Пуаро Агаты Кристи. Убийство в Восточном Экспрессе Скачать торрент  

Название: Пуаро Агаты Кристи. Убийство в Восточном Экспрессе
Оригинальное название: Agatha Christie's Poirot. Murder on the Orient Express
Год выпуска: 2010
Страна: Великобритания
Жанр: триллер, драма, криминал, детектив
Продолжительность: 01:32:51
Перевод: профессиональный многоголосый

Режиссер: Филипп Мартин
В ролях: Дэвид Суше, Тристан Шеперд, Сэм Крэйн, Тоби Джонс, Брайан Смит, Дэвид Моррисси, Джессика Честейн, Стюарт Скудамор, Серж Хазанавичус, Айлин Эткинс, Сюзанна Лотар, Дени Меноше, Барбара Хёрши, Хью Бонневилль, Мари-Жозе Кроз, Стэнли Вебер, Елена Сатине, Джозеф Моул, Сэмюэл Уэст

О фильме: Эркюль Пуаро из Станбула отправляется в Англию в Восточном экспрессе. Мсье Бук, директор компании и старый друг Пуаро, помогает ему разместиться со всеми удобствами, и, поначалу, путешествие кажется приятным. Но вскоре один из пассажиров, подозрительный американец по фамилии Рэтчетт, предлагает Пуаро стать его телохранителем за солидную сумму, поскольку Рэтчетту угрожают расправой, но Пуаро отказывается. Ночью поезд попадает в снежный занос где-то на территории Югославии, а сыщика постоянно будят какие-то невнятные крики. Вскоре наступает мёртвая тишина. На следующее утро тело бездыханного мистера Рэтчетта со множественными ножевыми ранами обнаруживают в его купе. Мсье Бук просит Пуаро расследовать это дело...



Качество: BDRip 720p
Формат: MKV
Видео: MPEG-4 AVC, 5719 Кбит/с, 1280х720
Аудио 1: русский, AC3, 384 kbps, 6 ch, 48 kHz [закадровый многоголосый]
Аудио 2: английский, AC3, 448 kbps, 2 ch, 48 kHz [оригинал]
Субтитры 1: русские
Субтитры 2: английские
Главы/чаптеры
Общее
Уникальный идентификатор : 196650589217943370767451742539978095265 (0x93F1869D29D43788BA655C3E982FBAA1)
Полное имя : D:\Video\Пуаро.2010.BDRip.720p by msltel.mkv
Формат : Matroska
Версия формата : Version 4 / Version 2
Размер файла : 4,25 Гбайт
Продолжительность : 1 ч. 32 м.
Общий поток : 6552 Кбит/сек
Название фильма : Rip by msltel
Дата кодирования : UTC 2018-05-24 05:56:47
Программа кодирования : mkvmerge v8.2.0 ('World of Adventure') 64bit
Библиотека кодирования : libebml v1.3.1 + libmatroska v1.4.2

Видео
Идентификатор : 1
Формат : AVC
Формат/Информация : Advanced Video Codec
Профиль формата : High@L4.1
Настройки формата : CABAC / 9 Ref Frames
Параметр CABAC формата : Да
Параметр RefFrames формата : 9 кадров
Идентификатор кодека : V_MPEG4/ISO/AVC
Продолжительность : 1 ч. 32 м.
Битрейт : 5719 Кбит/сек
Ширина : 1280 пикселей
Высота : 720 пикселей
Соотношение сторон : 16:9
Режим частоты кадров : Постоянный
Частота кадров : 24,000 кадра/сек
Цветовое пространство : YUV
Субдискретизация насыщенности : 4:2:0
Битовая глубина : 8 бит
Тип развёртки : Прогрессивная
Бит/(Пиксели*Кадры) : 0.259
Размер потока : 3,71 Гбайт (87%)
Библиотека кодирования : x264 core 146 r2538 121396c
Настройки программы : cabac=1 / ref=9 / deblock=1:-3:-2 / analyse=0x3:0x113 / me=umh / subme=11 / psy=1 / psy_rd=1.00:0.15 / mixed_ref=1 / me_range=32 / chroma_me=1 / trellis=2 / 8x8dct=1 / cqm=0 / deadzone=21,11 / fast_pskip=0 / chroma_qp_offset=-3 / threads=6 / lookahead_threads=1 / sliced_threads=0 / nr=0 / decimate=1 / interlaced=0 / bluray_compat=0 / constrained_intra=0 / bframes=8 / b_pyramid=2 / b_adapt=2 / b_bias=0 / direct=1 / weightb=1 / open_gop=0 / weightp=2 / keyint=230 / keyint_min=23 / scenecut=40 / intra_refresh=0 / rc_lookahead=40 / rc=crf / mbtree=0 / crf=19.9 / qcomp=0.60 / qpmin=0 / qpmax=69 / qpstep=4 / vbv_maxrate=62500 / vbv_bufsize=78125 / crf_max=0.0 / nal_hrd=none / filler=0 / ip_ratio=1.40 / pb_ratio=1.30 / aq=1:1.00
Язык : English
Default : Да
Forced : Нет

Аудио #1
Идентификатор : 2
Формат : AC-3
Формат/Информация : Audio Coding 3
Идентификатор кодека : A_AC3
Продолжительность : 1 ч. 32 м.
Вид битрейта : Постоянный
Битрейт : 384 Кбит/сек
Каналы : 6 каналов
Расположение каналов : Front: L C R, Side: L R, LFE
Частота : 48,0 КГц
Частота кадров : 31,250 кадров/сек (1536 SPF)
Битовая глубина : 16 бит
Метод сжатия : С потерями
Размер потока : 255 Мбайт (6%)
Заголовок : MVO
Язык : Russian
ServiceKind/String : Complete Main
Default : Да
Forced : Нет

Аудио #2
Идентификатор : 3
Формат : AC-3
Формат/Информация : Audio Coding 3
Идентификатор кодека : A_AC3
Продолжительность : 1 ч. 32 м.
Вид битрейта : Постоянный
Битрейт : 448 Кбит/сек
Каналы : 2 канала
Расположение каналов : Front: L R
Частота : 48,0 КГц
Частота кадров : 31,250 кадров/сек (1536 SPF)
Битовая глубина : 16 бит
Метод сжатия : С потерями
Размер потока : 298 Мбайт (7%)
Заголовок : original
Язык : English
ServiceKind/String : Complete Main
Default : Нет
Forced : Нет

Текст #1
Идентификатор : 4
Формат : UTF-8
Идентификатор кодека : S_TEXT/UTF8
Идентификатор кодека/Информация : UTF-8 Plain Text
Продолжительность : 1 ч. 30 м.
Битрейт : 102 бит/сек
ElementCount : 1119
Размер потока : 67,7 Кбайт (0%)
Заголовок : русские
Язык : Russian
Default : Нет
Forced : Нет

Текст #2
Идентификатор : 5
Формат : UTF-8
Идентификатор кодека : S_TEXT/UTF8
Идентификатор кодека/Информация : UTF-8 Plain Text
Продолжительность : 1 ч. 32 м.
Битрейт : 65 бит/сек
ElementCount : 1379
Размер потока : 44,1 Кбайт (0%)
Заголовок : английские
Язык : English
Default : Нет
Forced : Нет

Меню
00:00:00.000 : :Chapter 01
00:09:37.333 : :Chapter 02
00:18:35.291 : :Chapter 03
00:25:31.750 : :Chapter 04
00:36:00.916 : :Chapter 05
00:46:32.166 : :Chapter 06
00:56:51.750 : :Chapter 07
01:03:02.916 : :Chapter 08
01:08:51.416 : :Chapter 09
01:16:39.541 : :Chapter 10
01:20:21.500 : :Chapter 11
01:25:14.250 : :Chapter 12
pb.wtf



Скачать Пуаро Агаты Кристи. Убийство в Восточном Экспрессе через торрент https://a.radikal.ru/a04/1805/3d/8bb1e4ea9b47.jpg Скачать фильм Пуаро Агаты Кристи. Убийство в Восточном Экспрессе через торрент бесплантно в хорошем качестве О фильме: Эркюль Пуаро из Станбула отправляется в Англию в Восточном экспрессе. Мсье Бук, директор компании и старый друг Пуаро, помогает ... 10 10 3
Info! Золотая раздача, скачанное не засчитывается.
Торрент: Зарегистрирован [2018-05-24 06:57] · скачан: 55 раз
Статус: √ проверено
Размер: 4.25 GB
Как cкачать? Как скачать Пуаро Агаты Кристи. Убийство в Восточном Экспрессе через торрент | qTorrent


>> Регистрируемся здесь <<






Отзывы и комментарии о схеме читаем и пишем здесь: ---> Отзывы и комментарии о схеме

Новые благодарочки в телеграм довольных пользователей:
скриншот   скриншот   скриншот   скриншот   скриншот

24-05-2018 14:59 Пуаро Агаты Кристи. Убийство в Восточном Экспрессе Скачать торрент  

Классный фильмpb.wtf



    Дорогой пользователь! Огромная просьба, поблагодарите релизера, оцените раздачу и оставьте свои комментарий, если Вы скачали Пуаро Агаты Кристи. Убийство в Восточном Экспрессе через торрент бесплатно! Внесите свою лепту в развитие PiratBit!
    Комментировать посты могут только пользователи прошедшие не сложную регистрацию
    Показать сообщения:    

    Пуаро Агаты Кристи. Убийство в Восточном Экспрессе через торрент
    Скачать бесплатно Пуаро Агаты Кристи. Убийство в Восточном Экспрессе
    Пуаро Агаты Кристи. Убийство в Восточном Экспрессе скачать торрент
    Пуаро Агаты Кристи. Убийство в Восточном Экспрессе смотреть онлайн
    Cкачать фильм Пуаро Агаты Кристи. Убийство в Восточном Экспрессе бесплатно
    Пуаро Агаты Кристи. Убийство в Восточном Экспрессе скачать торрент в хорошем качестве
    Пуаро Агаты Кристи. Убийство в Восточном Экспрессе смотреть онлайн бесплатно в хорошем качестве


    Вы не можете начинать темы
    Вы не можете отвечать на сообщения
    Вы не можете редактировать свои сообщения
    Вы не можете удалять свои сообщения
    Вы не можете голосовать в опросах
    Вы не можете прикреплять файлы к сообщениям
    Вы можете скачивать файлы