Ссылка на приватное зеркало всего за 1$. Внимание количество ограничено!!!

OK

1+1

iTunes

мы

OK

1

WEB-DLRip

Джокер

Пифагор

Ведьмак / The Witcher сериал

iTunes

ПШазам

ОК

Оно 2

iTunes

30
pack

Вам бонус

ВАЖНО

!!Акция!!

Alien_RageХит недели

RePack

Resident Evil 21

ИГРА 18+

pack

RePack

jed

RePack

fifa19

RePack

Assassins Creed: Odyssey

RePack

NEED FOR SPEED™ PAYBACK

4 сезон

9 сезон

Бесстыжие 9 сезон

Все сериалы

все сериалы на PB.wtf

RePack

FAR CRY 5
  

Вне контроля / Incontrol (Куртис Дэвид Хардер) [2017, Фантастика, триллер, драма, WEB-DL 1080p] DUB [Line] pb.wtf

Вне контроля через торрент pb.wtf

Размер: 3.35 GB | Добавлен: 1 год 8 мес. назад | Торрент скачан:69 раз
Скачать  

24-05-2018 12:08 Вне контроля Скачать торрент  

Вне контроля / IncontrolГод выпуска: 2017
Страна: Канада
Жанр: Фантастика, триллер, драма
Продолжительность: 01:24:15
Перевод: Дублированный | Line
Субтитры: отсутствуют

Режиссер: Куртис Дэвид Хардер

rating

В ролях:

Бриттани Аллен, Крис Бал, Кэролайн Бузанко, Николь Кристенсен, Николь Кристенсен, Гриффин Корк, Эмили Коуард, Мэдди Диксон-Пуарье

Описание:

Несколько студентов обнаруживают таинственное устройство, с помощью которого можно захватывать контроль над телом любого человека и видеть мир его глазами. Проникая в чужие тела ради новых ощущений, они вскоре замечают, что ситуация постепенно выходит из-под контроля, а её участники подвергают себя и других всё большему риску.

Качество: WEB-DL 1080p
Формат: MKV

Видео: h,.264, 5 311 kb/s, 1920x800
Аудио#1: Русский (AC3, 2 ch, 384 Кбит/с)
скриншот  скриншот  скриншот  

Общее
Уникальный идентификатор : 225741983436155102531939589141119174540 (0xA9D4531665B63471B1F1A5ECC265078C)
Полное имя : F:\Incontrol.2018.D.WEB-DL.1O8Op_KOSHARA.mkv
Формат : Matroska
Версия формата : Version 2
Размер файла : 3,35 Гбайт
Продолжительность : 1 ч. 24 м.
Режим общего битрейта : Переменный
Общий поток : 5697 Кбит/сек
Дата кодирования : UTC 2018-05-24 01:55:34
Программа кодирования : mkvmerge v8.3.0 ('Over the Horizon') 64bit
Библиотека кодирования : libebml v1.3.1 + libmatroska v1.4.2

Видео
Идентификатор : 1
Формат : AVC
Формат/Информация : Advanced Video Codec
Профиль формата : High@L4.1
Параметр CABAC формата : Да
Параметр RefFrames формата : 4 кадра
Идентификатор кодека : V_MPEG4/ISO/AVC
Продолжительность : 1 ч. 24 м.
Вид битрейта : Переменный
Битрейт : 5311 Кбит/сек
Максимальный битрейт : 6000 Кбит/сек
Ширина : 1920 пикселей
Высота : 800 пикселей
Соотношение сторон : 2,40:1
Режим частоты кадров : Постоянный
Частота кадров : 23,976 (24000/1001) кадра/сек
Стандарт вещания : Component
Цветовое пространство : YUV
Субдискретизация насыщенности : 4:2:0
Битовая глубина : 8 бит
Тип развёртки : Прогрессивная
Бит/(Пиксели*Кадры) : 0.141
Размер потока : 3,06 Гбайт (91%)
Default : Да
Forced : Нет
Цветовой диапазон : Limited
Основные цвета : BT.709
Характеристики трансфера : BT.709
Коэффициенты матрицы : BT.709

Аудио
Идентификатор : 2
Формат : AC-3
Формат/Информация : Audio Coding 3
Расширение режима : CM (complete main)
Параметр Endianness формата : Big
Идентификатор кодека : A_AC3
Продолжительность : 1 ч. 24 м.
Вид битрейта : Постоянный
Битрейт : 384 Кбит/сек
Каналы : 2 канала
Расположение каналов : Front: L R
Частота : 48,0 КГц
Частота кадров : 31,250 кадров/сек (1536 spf)
Метод сжатия : С потерями
Размер потока : 231 Мбайт (7%)
Default : Да
Forced : Нет

pb.wtf



Скачать Вне контроля через торрент http://img12.lostpic.net/2018/05/24/4866f408ce8d5d7bddceb4e2de153542.jpg Скачать фильм Вне контроля через торрент бесплантно в хорошем качестве Описание: Несколько студентов обнаруживают таинственное устройство, с помощью которого можно захватывать контроль над телом любого человека ... 8.2 10 5
Торрент: Зарегистрирован [2018-05-24 12:08] · скачан: 69 раз
Статус: T временная
Размер: 3.35 GB
Как cкачать? Как скачать Вне контроля через торрент | qTorrent

% Раздел Тема Автор DL S | L
T Фильмы (мультфильмы) cо спонсором показа (Новинки AVI/MKV) [ 3.13 GB ] Вне контроля / Incontrol [2017 WEB-DL 720p] DUB [Line] bober100 Скачать
1 | 0
T Фильмы (мультфильмы) cо спонсором показа (Новинки AVI/MKV) [ 1.36 GB ] Вне контроля / Incontrol [2017 WEB-DLRip] DUB [Line] bober100 Скачать
1 | 0

28-11-2019 20:33  

Отключить всю рекламу на сайте

    Дорогой пользователь! Огромная просьба, поблагодарите релизера, оцените раздачу и оставьте свои комментарий, если Вы скачали Вне контроля через торрент бесплатно! Внесите свою лепту в развитие PiratBit!
    Комментировать посты могут только пользователи прошедшие не сложную регистрацию
    Показать сообщения:    

    Вне контроля через торрент
    Скачать бесплатно Вне контроля
    Вне контроля скачать торрент
    Вне контроля смотреть онлайн
    Cкачать фильм Вне контроля бесплатно
    Вне контроля скачать торрент в хорошем качестве
    Вне контроля смотреть онлайн бесплатно в хорошем качестве


    Вы не можете начинать темы
    Вы не можете отвечать на сообщения
    Вы не можете редактировать свои сообщения
    Вы не можете удалять свои сообщения
    Вы не можете голосовать в опросах
    Вы не можете прикреплять файлы к сообщениям
    Вы можете скачивать файлы