Ссылка на приватное зеркало нашего сайта всего за 1$. Внимание количество ограничено!!!

2 сезон

iTunes

1 сезон

1

2 сезон

2 сезон

iTunes

1 сезон

RePack

30

Новинка

ВАЖНО

ИГРА 18+

pack

RePack

MK11
pack

Забери бонус

RePack

jed

!!Акция!!

Alien_Rage

RePack

fifa19

RePack

Assassins Creed: Odyssey

RePack

NEED FOR SPEED™ PAYBACK

4 сезон

9 сезон

Бесстыжие 9 сезон

Все сериалы

все сериалы на PB.wtf

RePack

FAR CRY 5
  

Супергёрл / Супердевушка / Supergirl / Сезон: 1-2 / Серии 1-42 из 42 (Дермотт Даунс, Глен Уинтер) [2015-2016, фантастика, боевик, драма, приключения, WEB-DLRip 1080p] MVO [LostFilm] pb.wtf

Супергёрл через торрент pb.wtf

Размер: 75.98 GB | Добавлен: 2 года 6 мес. назад | Торрент скачан:22 раза
Скачать  

24-05-2018 13:06 Супергёрл Скачать торрент  

Супергёрл / Supergirl

Год выпуска: 2015-2016
Страна: США, Warner Bros. Television, Berlanti Productions
Жанр: фантастика, боевик, драма, приключения
Продолжительность: 42 х ~ 00:45:00
Перевод: Профессиональный многоголосый [LostFilm]
В ролях:

Мелисса Бенойст (Kara Danvers), Мехкад Брукс (James Olsen), Кайлер Ли (Alex Danvers), Джереми Джордан (Winn Schott), Дэвид Хэрвуд (J'onn J'onzz), Крис Вуд (Mon-El), Кэти МакГрат (Lena Luthor), Флориана Лима (Maggie Sawyer), Калиста Флокхарт (Cat Grant), Одетт Эннэйбл (Samantha Arias), Питер Фачинелли (Maxwell Lord), Бриана Венскус (Agent Vasquez)
Описание:
Когда Криптон, родная планета 12-летней Кары Зор-Эл (Малина Вайсман), была близка к разрушению, родители отправили свою дочь вслед за ее двоюродным братом Кал-Элом на Землю, чтобы она могла выжить и заодно защитить его от опасностей. Однако из-за взрывной волны корабль Кары попал в фантомную зону и прибыл на место назначения, когда Кал уже вырос, превратился в Супермена и перестал нуждаться в ее опеке. Много лет Кара жила в мире людей, вынужденная подавлять свою суперсилу и скрывать истинную сущность, прозябая в тени легендарного брата. Повзрослев и став красивой, умной женщиной, она устроилась на работу, где изо дня в день занимается тем, что разносит кофе и документы. Такая рутина не подходит Каре — она чувствует, что губит свой потенциал. Но все меняется, когда девушка проявляет свои неординарные способности, спасая от неминуемого крушения самолет, на борту которого находилась и ее сводная сестра Алекс (Кайлер Ли). Прозванная газетчиками "Супергёрл", Кара загорается желанием защищать жителей города от преступности. Теперь ее ждут невероятные приключения, которые принесут девушке не меньшую славу, чем у самого Человека из стали. Однако столь желанная жизнь таит в себе и множество смертельных опасностей, ведь за хрупкой представительницей дома Эл охотятся самые свирепые головорезы Вселенной...
Рейтинг:

Качество: WEB-DLRip 1080p
Формат: MKV
Видео: MPEG-4 AVC, ~ 5242 Кбит/с, 1920x1080
Аудио: Русский, (AC3, 2 ch, 384 Кбит/с)
Аудио: Aнглийский (AC3, 2 ch, 384 Кбит/с)
Первый сезон:
01. Пилотная серия / Pilot
02. Вместе мы сильнее / Stronger Together
03. Драться или бежать / Fight or Flight
04. Как она это делает? / How Does She Do It?
05. Лайвваер / Livewire
06. Краснолицый / Red Faced
07. Человек на день / Human for a Day
08. Захват власти / Hostile Takeover
09. Кровные узы / Blood Bonds
10. Ребячество / Childish Things
11. Неизвестный гость с другой планеты / Strange Visitor from Another Planet
12. Бизарро / Bizarro
13. Для девушки, у которой есть всё / For the Girl Who Has Everything
14. Правда, справедливость и американский путь / Truth, Justice and the American Way
15. Одиночество / Solitude
16. Падение / Falling
17. Охотник / Manhunter
18. Лучшие в мирах / Worlds Finest
19. Мириада / Myriad
20. Ангелы получше / Better Angels

Второй сезон:
21. Приключения Супергёрл / The Adventures of Supergirl
22. Последние дети Криптона / The Last Children of Krypton
23. Добро пожаловать на Землю / Welcome to Earth
24. Выжившие / Survivors
25. Перекрёстный огонь / Crossfire
26. Изменения / Changing
27. Самый тёмный уголок / The Darkest Place
28. Медуза / Medusa
29. Супергёрл живёт / Supergirl Lives
30. Можно быть героем / We Can Be Heroes
31. Марсианские хроники / The Martian Chronicles
32. Люторы / Luthors
33. Мистер и миссис Миксизпитлик / Mr. & Mrs. Mxyzptlk
34. Воссоединение семьи / Homecoming
35. Исход / Exodus
36. Несчастные / Star-Crossed (1)
37. Далекое солнце / Distant Sun
38. Первоклассный репортер / Ace Reporter
39. Алекс / Alex
40. Город потерянных детей / City of Lost Children
41. Бой / Resist
42. И всё же она справилась / Nevertheless, She Persisted
Общее
Уникальный идентификатор : 253845120959818412460323589523580002386 (0xBEF8CABE8033FFB49C7A004DA9362052)
Полное имя : F:\Serials\Supergirl.S01.1080p.LostFilm.TV\Supergirl.S01E01.1080p.rus.LostFilm.TV.mkv
Формат : Matroska
Версия формата : Version 4 / Version 2
Размер файла : 1,95 Гбайт
Продолжительность : 46 м.
Общий поток : 6012 Кбит/сек
Дата кодирования : UTC 2015-05-30 18:48:22
Программа кодирования : mkvmerge v7.7.0 ('Six Voices') 64bit built on Feb 28 2015 23:39:33
Библиотека кодирования : libebml v1.3.1 + libmatroska v1.4.2
DURATION : 00:46:21.984000000
NUMBER_OF_FRAMES : 86937
NUMBER_OF_BYTES : 133535232
_STATISTICS_WRITING_APP : mkvmerge v7.7.0 ('Six Voices') 64bit built on Feb 28 2015 23:39:33
_STATISTICS_WRITING_DATE_UTC : 2015-05-30 18:48:22
_STATISTICS_TAGS : BPS DURATION NUMBER_OF_FRAMES NUMBER_OF_BYTES

Видео
Идентификатор : 1
Формат : AVC
Формат/Информация : Advanced Video Codec
Профиль формата : High@L4.0
Параметр CABAC формата : Да
Параметр ReFrames формата : 2 кадра
Идентификатор кодека : V_MPEG4/ISO/AVC
Продолжительность : 46 м.
Битрейт : 5242 Кбит/сек
Ширина : 1920 пикселей
Высота : 1080 пикселей
Соотношение сторон : 16:9
Режим частоты кадров : Постоянный
Частота кадров : 23,976 кадра/сек
Цветовое пространство : YUV
Субдискретизация насыщенности : 4:2:0
Битовая глубина : 8 бит
Тип развёртки : Прогрессивная
Бит/(Пиксели*Кадры) : 0.105
Размер потока : 1,66 Гбайт (85%)
Библиотека кодирования : x264 core 112 r1834 a51816a
Настройки программы : cabac=1 / ref=1 / deblock=1:0:0 / analyse=0x3:0x133 / me=umh / subme=7 / psy=1 / psy_rd=1.00:0.00 / mixed_ref=0 / me_range=16 / chroma_me=1 / trellis=1 / 8x8dct=1 / cqm=0 / deadzone=21,11 / fast_pskip=1 / chroma_qp_offset=-2 / threads=12 / sliced_threads=0 / nr=0 / decimate=1 / interlaced=0 / constrained_intra=0 / bframes=5 / b_pyramid=0 / b_adapt=1 / b_bias=0 / direct=3 / weightb=1 / open_gop=0 / weightp=2 / keyint=250 / keyint_min=25 / scenecut=40 / intra_refresh=0 / rc_lookahead=40 / rc=2pass / mbtree=1 / bitrate=5242 / ratetol=1.0 / qcomp=0.60 / qpmin=0 / qpmax=51 / qpstep=4 / cplxblur=20.0 / qblur=0.5 / ip_ratio=1.40 / aq=1:1.00
Default : Да
Forced : Нет

Аудио #1
Идентификатор : 2
Формат : AC-3
Формат/Информация : Audio Coding 3
Расширение режима : CM (complete main)
Параметр Endianness формата : Big
Идентификатор кодека : A_AC3
Продолжительность : 46 м.
Вид битрейта : Постоянный
Битрейт : 384 Кбит/сек
Каналы : 2 канала
Расположение каналов : Front: L R
Частота : 48,0 КГц
Битовая глубина : 16 бит
Метод сжатия : С потерями
Размер потока : 127 Мбайт (6%)
Default : Да
Forced : Нет

Аудио #2
Идентификатор : 3
Формат : AC-3
Формат/Информация : Audio Coding 3
Расширение режима : CM (complete main)
Параметр Endianness формата : Big
Идентификатор кодека : A_AC3
Продолжительность : 46 м.
Вид битрейта : Постоянный
Битрейт : 384 Кбит/сек
Каналы : 2 канала
Расположение каналов : Front: L R
Частота : 48,0 КГц
Битовая глубина : 16 бит
Метод сжатия : С потерями
Размер потока : 127 Мбайт (6%)
Default : Нет
Forced : Нет
pb.wtf



Скачать Супергёрл через торрент https://c.radikal.ru/c20/1805/9c/8e28696a3bfb.png Скачать фильм Супергёрл через торрент бесплантно в хорошем качестве Описание: Когда Криптон, родная планета 12-летней Кары Зор-Эл (Малина Вайсман), была близка к разрушению, родители отправили свою дочь ... 10 10 4
Info! Золотая раздача, скачанное не засчитывается.
Торрент: Зарегистрирован [2018-05-24 13:06] · скачан: 22 раз
Статус: √ проверено
Размер: 75.98 GB
Как cкачать? Как скачать Супергёрл через торрент | qTorrent

28-11-2019 20:33  

Отключить всю рекламу на сайте

    Дорогой пользователь! Огромная просьба, поблагодарите релизера, оцените раздачу и оставьте свои комментарий, если Вы скачали Супергёрл через торрент бесплатно! Внесите свою лепту в развитие PiratBit!
    Комментировать посты могут только пользователи прошедшие не сложную регистрацию
    Показать сообщения:    

    Супергёрл через торрент
    Скачать бесплатно Супергёрл
    Супергёрл скачать торрент
    Супергёрл смотреть онлайн
    Cкачать фильм Супергёрл бесплатно
    Супергёрл скачать торрент в хорошем качестве
    Супергёрл смотреть онлайн бесплатно в хорошем качестве


    Вы не можете начинать темы
    Вы не можете отвечать на сообщения
    Вы не можете редактировать свои сообщения
    Вы не можете удалять свои сообщения
    Вы не можете голосовать в опросах
    Вы не можете прикреплять файлы к сообщениям
    Вы можете скачивать файлы