новый адрес
Ссылка на приватное зеркало всего за 1$. Внимание количество ограничено!!!

iTunes

1+1

iTunes

мы

WEB-DL

1

iTunes

Чернобыль

iTunes

Ральф против интернета

Лицензия

ПШазам

Лицензия

Оно 2

Лицензия

30
pack

Вам бонус

ВАЖНО

!!Акция!!

Alien_RageХит недели

RePack

Resident Evil 21

ИГРА 18+

pack

RePack

jed

!!Акция!!

Alien_Rage

RePack

fifa19

RePack

Assassins Creed: Odyssey

RePack

NEED FOR SPEED™ PAYBACK

3 сезон

9 сезон

Бесстыжие 9 сезон

Все сериалы

все сериалы на PB.wtf

RePack

FAR CRY 5
Ребята, катастрофически не хватает 1900р. для оплаты серверов за Октябрь (всвязи с блокировками трафик упал в 3 раза), 1-2р., выручайте.
  

Гордая Мэри / Proud Mary (Бабак Наджафи) [2018, боевик, триллер, криминал, BDRip-AVC] Профессиональный многоголосый [Лицензия / iTunes] R.G.Generalfilm pb.wtf

Гордая Мэри через торрент pb.wtf

Размер: 1.11 GB | Добавлен: 1 год 6 мес. назад | Торрент скачан:154 раза
Скачать  

24-05-2018 13:58 Гордая Мэри Скачать торрент  

Гордая Мэри
««Execute with style»»


Год выпуска: 2018
Страна: США
Жанр: боевик, триллер, криминал

Продолжительность: 01:29:02
Перевод: Профессиональный многоголосый [Лицензия / iTunes]
Режиссер: Бабак Наджафи
В ролях:

Тараджи П. Хенсон (Mary), Билли Браун (Tom), Джахи Диалло Уинстон (Danny), Нил МакДонаф (Walter), Маргарет Эйвери (Mina), Ксандер Беркли (Uncle), Раде Шербеджия (Luka), Эрик Ларей Харви (Reggie), Дэнни Гловер (Benny), Adobuere Ebiama (Woman), Оуэн Бурк (Jerome), Бо Клири (Benny's Guy / Tyson)
Описание:
У наёмной убийцы Мэри есть гордость и принципы, поэтому во время выполнения очередного задания она оставляет в живых сына-подростка жертвы, Дэнни. Год спустя парень занимается доставкой наркотиков для русской бандитской группировки Нью-Йорка. Ему приходится несладко, и после очередной порции побоев Дэнни приходит в себя в квартире Мэри. Весь год женщина терзалась чувством вины и теперь решила взять на себя заботу о сироте, но немного перестаралась - убила нескольких членов русской мафии, тем самым развязав войну между преступными группировками.
Мировая премьера: 12 января 2018

Качество: BDRip-AVC by
Формат: MKV
Видео кодек: AVC
Аудио кодек: AC3
Видео: AVC, 1024x428 (2.40:1), 1403 kbps, 23,976 fps, 0,134 bpp
Аудио: русский / AC3 / 5.1 / 48 kHz / 384 kbps / ||
Навигация по главам: есть
General
Unique ID : 211924077416746172220837515921037064842 (0x9F6F17B8C91F5B89AA1308CDCE95FA8A)
Complete name : E:\запись с тв\Gordaja.Meri.2018.BDRip-AVC.Rip.by.White Smoke.R.G.Generalfilm.mkv
Format : Matroska
Format version : Version 2
File size : 1.11 GiB
Duration : 1 h 29 min
Overall bit rate : 1 789 kb/s
Movie name : Gordaja.Meri.2018.BDRip-AVC.Rip.by.White Smoke.R.G.Generalfilm.mkv
Encoded date : UTC 2018-05-24 13:29:44
Writing application : mkvmerge v7.6.0 ('Garden of Dreams') 32bit built on Feb 11 2015 00:18:47
Writing library : libebml v1.3.1 + libmatroska v1.4.2

Video
ID : 1
Format : AVC
Format/Info : Advanced Video Codec
Format profile : High@L4.1
Format settings, CABAC : Yes
Format settings, ReFrames : 10 frames
Codec ID : V_MPEG4/ISO/AVC
Duration : 1 h 29 min
Bit rate : 1 403 kb/s
Width : 1 024 pixels
Height : 428 pixels
Display aspect ratio : 2.40:1
Frame rate mode : Constant
Frame rate : 23.976 (24000/1001) FPS
Color space : YUV
Chroma subsampling : 4:2:0
Bit depth : 8 bits
Scan type : Progressive
Bits/(Pixel*Frame) : 0.134
Stream size : 872 MiB (77%)
Writing library : x264 core 148 r2638 7599210
Encoding settings : cabac=1 / ref=10 / deblock=1:-2:-1 / analyse=0x3:0x113 / me=umh / subme=11 / psy=1 / psy_rd=0.00:0.15 / mixed_ref=1 / me_range=32 / chroma_me=1 / trellis=2 / 8x8dct=1 / cqm=0 / deadzone=21,11 / fast_pskip=0 / chroma_qp_offset=-3 / threads=6 / lookahead_threads=1 / sliced_threads=0 / nr=0 / decimate=0 / interlaced=0 / bluray_compat=0 / constrained_intra=0 / bframes=10 / b_pyramid=2 / b_adapt=2 / b_bias=0 / direct=1 / weightb=1 / open_gop=0 / weightp=2 / keyint=240 / keyint_min=23 / scenecut=40 / intra_refresh=0 / rc_lookahead=40 / rc=2pass / mbtree=1 / bitrate=1403 / ratetol=1.0 / qcomp=0.65 / qpmin=0 / qpmax=69 / qpstep=4 / cplxblur=20.0 / qblur=0.5 / vbv_maxrate=50000 / vbv_bufsize=65500 / nal_hrd=none / filler=0 / ip_ratio=1.40 / aq=1:1.00
Language : English
Default : Yes
Forced : No

Audio
ID : 2
Format : AC-3
Format/Info : Audio Coding 3
Mode extension : CM (complete main)
Format settings, Endianness : Big
Codec ID : A_AC3
Duration : 1 h 29 min
Bit rate mode : Constant
Bit rate : 384 kb/s
Channel(s) : 6 channels
Channel positions : Front: L C R, Side: L R, LFE
Sampling rate : 48.0 kHz
Frame rate : 31.250 FPS (1536 spf)
Compression mode : Lossy
Stream size : 245 MiB (21%)
Title : MVO (iTunes)
Language : Russian
Default : Yes
Forced : No

Menu
00:00:00.000 : en:Chapter 01
00:03:23.077 : en:Chapter 02
00:09:20.268 : en:Chapter 03
00:15:58.374 : en:Chapter 04
00:22:10.245 : en:Chapter 05
00:28:13.650 : en:Chapter 06
00:33:54.198 : en:Chapter 07
00:37:56.357 : en:Chapter 08
00:45:14.920 : en:Chapter 09
00:50:40.120 : en:Chapter 10
00:55:58.229 : en:Chapter 11
00:59:59.095 : en:Chapter 12
01:05:12.992 : en:Chapter 13
01:10:28.724 : en:Chapter 14
01:15:46.542 : en:Chapter 15
01:20:09.179 : en:Chapter 16
pb.wtf



Скачать Гордая Мэри через торрент http://interhit.org/img/2018-05/24/pyq2mxzjsn8kzagfozkpmiqys.png Скачать фильм Гордая Мэри через торрент бесплантно в хорошем качестве Описание: У наёмной убийцы Мэри есть гордость и принципы, поэтому во время выполнения очередного задания она оставляет в живых ... 8.8 10 8
Info! Золотая раздача, скачанное не засчитывается.
Торрент: Зарегистрирован [2018-05-24 13:59] · скачан: 154 раз
Статус: √ проверено
Размер: 1.11 GB
Как cкачать? Как скачать Гордая Мэри через торрент | qTorrent

28-11-2019 20:33  

Отключить всю рекламу на сайте

    Дорогой пользователь! Огромная просьба, поблагодарите релизера, оцените раздачу и оставьте свои комментарий, если Вы скачали Гордая Мэри через торрент бесплатно! Внесите свою лепту в развитие PiratBit!
    Комментировать посты могут только пользователи прошедшие не сложную регистрацию
    Показать сообщения:    

    Гордая Мэри через торрент
    Скачать бесплатно Гордая Мэри
    Гордая Мэри скачать торрент
    Гордая Мэри смотреть онлайн
    Cкачать фильм Гордая Мэри бесплатно
    Гордая Мэри скачать торрент в хорошем качестве
    Гордая Мэри смотреть онлайн бесплатно в хорошем качестве


    Вы не можете начинать темы
    Вы не можете отвечать на сообщения
    Вы не можете редактировать свои сообщения
    Вы не можете удалять свои сообщения
    Вы не можете голосовать в опросах
    Вы не можете прикреплять файлы к сообщениям
    Вы можете скачивать файлы