новый адрес
Ссылка на приватное зеркало всего за 1$. Внимание количество ограничено!!!

iTunes

1+1

iTunes

мы

WEB-DL

1

iTunes

Чернобыль

iTunes

Ральф против интернета

Лицензия

ПШазам

Лицензия

Оно 2

Лицензия

30
pack

Вам бонус

ВАЖНО

!!Акция!!

Alien_RageХит недели

RePack

Resident Evil 21

ИГРА 18+

pack

RePack

jed

!!Акция!!

Alien_Rage

RePack

fifa19

RePack

Assassins Creed: Odyssey

RePack

NEED FOR SPEED™ PAYBACK

3 сезон

9 сезон

Бесстыжие 9 сезон

Все сериалы

все сериалы на PB.wtf

RePack

FAR CRY 5
Ребята, катастрофически не хватает 1900р. для оплаты серверов за Октябрь (всвязи с блокировками трафик упал в 3 раза), 1-2р., выручайте.
  

Дрожь земли 6 / Tremors: A Cold Day in Hell (Дон Майкл Пол) [2018, ужасы, фантастика, боевик, HDRip] MVO [RusFilm] pb.wtf

Дрожь земли 6 через торрент pb.wtf

Размер: 1.46 GB | Добавлен: 1 год 6 мес. назад | Торрент скачан:666 раз
Скачать  

24-05-2018 17:24 Дрожь земли 6 Скачать торрент  

Дрожь земли 6 / Tremors: A Cold Day in Hell

Год выпуска: 2018
Страна: США, ЮАР
Жанр: ужасы, фантастика, боевик

Продолжительность: 01:37:58
Перевод: Любительский многоголосый [RusFilm]
Примечание: Релиз без рекламы
Режиссер: Дон Майкл Пол
В ролях:

Майкл Гросс (Burt Gummer), Джейми Кеннеди (Travis B. Welker), Таня ван Граан (Dr. Rita Sims), Jamie-Lee Money (Valerie McKee), Kiroshan Naidoo (Hart Hansen), Кино Ли Гектор (Aklark), Роб ван Вуурен (Swackhammer), Эдриэнн Пирс (Mac), Francesco Nassimbeni (Dr. Charles Freezze), Поль дю Туа (Mr. Cutts), Christie Peruso (Geo-Tech Vargas), Джессика Энсти (Dr. D)
Описание:
Берт Гаммер и его сын Трэвис Уэлкер отправляются в Канаду, чтобы расследовать серию атак гигантских червей, и оказываются среди грабоидов. Берт начинает подозревать, что военные пытаются приспособить подземных монстров для своих нужд, но тут дело принимает неожиданный оборот: один из грабоидов отравляет его. Единственное спасение - сделать антидот из свежего яда, но для этого надо подоить грабоида.
Рейтинг:
rating
MPAA: PG-13 - Детям до 13 лет просмотр не желателен
Качество: HDRip
Формат: AVI
Видео: XviD, 720x400 (16:9), 1846 kbps, 23,976 fps, 0,267 bpp
Аудио: AC3 / 2.0 / 48 kHz / 192 kbps /

General
Complete name : F:\Дрожь земли 6_2018_HDRip.avi
Format : AVI
Format/Info : Audio Video Interleave
File size : 1.46 GiB
Duration : 1 h 37 min
Overall bit rate : 2 131 kb/s
Writing application : VirtualDubMod 1.5.10.3 | www.virtualdub-fr.org || (build 2550/release)
Writing library : VirtualDubMod build 2550/release

Video
ID : 0
Format : MPEG-4 Visual
Format profile : Advanced Simple@L5
Format settings, BVOP : 1
Format settings, QPel : No
Format settings, GMC : No warppoints
Format settings, Matrix : Custom
Codec ID : XVID
Codec ID/Hint : XviD
Duration : 1 h 37 min
Bit rate : 1 846 kb/s
Width : 720 pixels
Height : 400 pixels
Display aspect ratio : 16:9
Frame rate : 23.976 (23976/1000) FPS
Color space : YUV
Chroma subsampling : 4:2:0
Bit depth : 8 bits
Scan type : Progressive
Compression mode : Lossy
Bits/(Pixel*Frame) : 0.267
Stream size : 1.26 GiB (87%)
Writing library : XviD 73

Audio
ID : 1
Format : AC-3
Format/Info : Audio Coding 3
Mode extension : CM (complete main)
Format settings, Endianness : Big
Codec ID : 2000
Duration : 1 h 37 min
Bit rate mode : Constant
Bit rate : 192 kb/s
Channel(s) : 2 channels
Channel positions : Front: L R
Sampling rate : 48.0 kHz
Frame rate : 31.250 FPS (1536 spf)
Compression mode : Lossy
Stream size : 135 MiB (9%)
Alignment : Split accross interleaves
pb.wtf



Скачать Дрожь земли 6 через торрент http://i104.fastpic.ru/big/2018/0524/1e/d1e21db3346b6113c3e8bf4be7f67a1e.jpg Скачать фильм Дрожь земли 6 через торрент бесплантно в хорошем качестве Описание: Берт Гаммер и его сын Трэвис Уэлкер отправляются в Канаду, чтобы расследовать серию атак гигантских червей, и оказываются среди ... 8.4 10 19
Info! Золотая раздача, скачанное не засчитывается.
Торрент: Зарегистрирован [2018-05-24 17:24] · скачан: 666 раз
Статус: T временная
Размер: 1.46 GB
Как cкачать? Как скачать Дрожь земли 6 через торрент | qTorrent

% Раздел Тема Автор DL S | L
# Фильмы [HD 720p, 1080p] (Хороший звук DUB, MVO) [ 9.66 GB ] Дрожь земли 6 / Tremors: A Cold Day in Hell [2018 BDRip 1080p] MVO [RusFilm] -Lexx- Скачать
1 | 0

28-11-2019 20:33  

Отключить всю рекламу на сайте

24-05-2018 18:13 Дрожь земли 6 Скачать торрент  

Видимо трэш)pb.wtf



24-05-2018 18:38 Дрожь земли 6 Скачать торрент  

блин извратилифильм. самые первые части были норм ,НО новые в треш,и угар " но для этого надо подоить грабоида."pb.wtf



24-05-2018 19:30 Дрожь земли 6 Скачать торрент  

KAMAZ18rus писал(а):

блин извратилифильм. самые первые части были норм ,НО новые в треш,и угар " но для этого надо подоить грабоида."

поддерживаю. чуть со стула не упал от " надо подоить"pb.wtf



24-05-2018 23:53 Дрожь земли 6 Скачать торрент  

Подоить гробоида .хм . Ну зато что то новое . Интересно они много молока дают .pb.wtf



25-05-2018 01:21 Дрожь земли 6 Скачать торрент  

-и много грабоид дает молока?
-не выдоишь за день - устанешь чутка)))pb.wtf



25-05-2018 12:34 Дрожь земли 6 Скачать торрент  

tamburetko писал(а):

-и много грабоид дает молока?
-не выдоишь за день - устанешь чутка)))

,
, -Lexx-, спасибо за рип!pb.wtf
K-Lexx- писал(а):

Приятного просмотра.



31-05-2018 16:31 Дрожь земли 6 Скачать торрент  

Не фига вы не понимаете в трешаках, все фильмы про земляных червяков, жопных летателей и прочую жуть - огонь!!1 Для фанатов смотреть обязательно!pb.wtf



    Дорогой пользователь! Огромная просьба, поблагодарите релизера, оцените раздачу и оставьте свои комментарий, если Вы скачали Дрожь земли 6 через торрент бесплатно! Внесите свою лепту в развитие PiratBit!
    Комментировать посты могут только пользователи прошедшие не сложную регистрацию
    Показать сообщения:    

    Дрожь земли 6 через торрент
    Скачать бесплатно Дрожь земли 6
    Дрожь земли 6 скачать торрент
    Дрожь земли 6 смотреть онлайн
    Cкачать фильм Дрожь земли 6 бесплатно
    Дрожь земли 6 скачать торрент в хорошем качестве
    Дрожь земли 6 смотреть онлайн бесплатно в хорошем качестве


    Вы не можете начинать темы
    Вы не можете отвечать на сообщения
    Вы не можете редактировать свои сообщения
    Вы не можете удалять свои сообщения
    Вы не можете голосовать в опросах
    Вы не можете прикреплять файлы к сообщениям
    Вы можете скачивать файлы