Всегда рабочее зеркало без VPN и Proxy просто перед .vidak.icu напиши любое слово или цифру, Пример http://8wl4.vidak.icu

MVO

Лицензия

1 сезон

1

1 сезон

iTunes

1 сезон

13

1 сезон

Deluxe

pack

Рекомендуем

Пиратка

30

ВАЖНО

RePack

MK11

RePack

jed

RePack

fifa19

RePack

RDR2

RePack

NEED FOR SPEED™ PAYBACK

Кинопоиск HD

6 сезон

 Острые козырьки 6 сезон

Все сериалы

все сериалы на PB.wtf

RePack

FAR CRY 5
  
Magnet ссылка

Опасный бизнес / Gringo (Нэш Эдгертон) [2018, Боевик, комедия, криминал, BDRip 720p] DUB (rus, ukr) [iTunes] pb.wtf

Опасный бизнес через торрент pb.wtf

Размер: 5.24 GB | Добавлен: 4 года 1 мес. назад | Торрент скачан:646 раз
Смотреть онлайн Опасный бизнес | Скачать    Ребята, помогите собрать деньги на оплату серверов!!!

25-05-2018 01:01 Опасный бизнес Скачать торрент  

Опасный бизнес / Gringo
Год выпуска: 2018
Страна: США, Австралия
Жанр: Боевик, комедия, криминал
Продолжительность: 01:50:38
Перевод: Дублированный | iTunes
Субтитры: Английские

Режиссер: Нэш Эдгертон

rating

В ролях:

Джоэл Эдгертон, Шарлиз Терон, Дэвид Ойелоуо, Тэнди Ньютон, Башир Салахуддин, Гленн Кубота, Мелони Диас, Аманда Сайфред, Гарри Тредэвэй, Тео Таплитц

Описание:

Дерзкая длинноногая блондинка — она идеально подходит для опасного бизнеса. Однажды одному из ее подчиненных становится известна уникальная формула, за которой гоняется весь мир. Он решает инсценировать собственное похищение и потребовать выкуп у компании. Лучше этому умнику не рассчитывать на помощь своей эффектной начальницы, ведь для корпорации он предпочтительнее мертвый, чем живой.

Качество: BDRip 720p
Формат: MKV

Видео: MPEG-4 AVC, 1280x535, 4500 Kbit/s, 23.976 fps
Аудио#01: 48 kHz, AC3, 5.1, 384 Kbps | iTunes | RUS |
Аудио#02: 48 kHz, AC3, 5.1, 384 Kbps | iTunes | UKR |
Аудио#03: 48 kHz, DTS, 5.1, 1510 Kbps | Оригинал | ENG |
скриншот   скриншот   скриншот   скриншот   скриншот  

General
Unique ID : 252352313999246583520684259651228550325 (0xBDD949ADB26EC51BC4DED3FF551C44B5)
Complete name : C:Video111Gringo.2018.BDRip.720p.ExKinoRay.mkv
Format : Matroska
Format version : Version 4 / Version 2
File size : 5.24 GiB
Duration : 1 h 50 min
Overall bit rate : 6 780 kb/s
Movie name : Gringo 2018 from ExKinoRay
Encoded date : UTC 2018-05-24 23:10:58
Writing application : mkvmerge v22.0.0 ('At The End Of The World') 64-bit
Writing library : libebml v1.3.5 + libmatroska v1.4.8

Video
ID : 1
Format : AVC
Format/Info : Advanced Video Codec
Format profile : High@L4.1
Format settings : CABAC / 12 Ref Frames
Format settings, CABAC : Yes
Format settings, ReFrames : 12 frames
Codec ID : V_MPEG4/ISO/AVC
Duration : 1 h 50 min
Bit rate : 4 500 kb/s
Width : 1 280 pixels
Height : 536 pixels
Display aspect ratio : 2.40:1
Frame rate mode : Constant
Frame rate : 23.976 (24000/1001) FPS
Color space : YUV
Chroma subsampling : 4:2:0
Bit depth : 8 bits
Scan type : Progressive
Bits/(Pixel*Frame) : 0.274
Stream size : 3.48 GiB (66%)
Writing library : x264 core 142 r2431+42 c69a006 tMod [8-bit@all X86_64]
Encoding settings : cabac=1 / ref=12 / deblock=1:-3:-3 / analyse=0x3:0x133 / me=umh / subme=11 / psy=1 / fade_compensate=0.00 / psy_rd=1.05:0.00 / mixed_ref=1 / me_range=48 / chroma_me=1 / trellis=2 / 8x8dct=1 / cqm=0 / deadzone=21,11 / fast_pskip=0 / chroma_qp_offset=-2 / threads=16 / lookahead_threads=2 / sliced_threads=0 / nr=0 / decimate=0 / interlaced=0 / bluray_compat=0 / constrained_intra=0 / fgo=0 / bframes=9 / b_pyramid=2 / b_adapt=2 / b_bias=0 / direct=3 / weightb=1 / open_gop=0 / weightp=2 / keyint=240 / keyint_min=24 / scenecut=40 / intra_refresh=0 / rc_lookahead=0 / rc=2pass / mbtree=0 / bitrate=4500 / ratetol=1.0 / qcomp=0.70 / qpmin=0:0:0 / qpmax=69:69:69 / qpstep=4 / cplxblur=20.0 / qblur=0.5 / vbv_maxrate=50000 / vbv_bufsize=30000 / nal_hrd=none / filler=0 / ip_ratio=1.20 / pb_ratio=1.20 / aq=3:0.80 / aq-sensitivity=10.00 / aq-factor=1.00:1.00:1.00 / aq2=0 / aq3=0
Language : English
Default : Yes
Forced : No

Audio #1
ID : 2
Format : AC-3
Format/Info : Audio Coding 3
Codec ID : A_AC3
Duration : 1 h 50 min
Bit rate mode : Constant
Bit rate : 384 kb/s
Channel(s) : 6 channels
Channel positions : Front: L C R, Side: L R, LFE
Sampling rate : 48.0 kHz
Frame rate : 31.250 FPS (1536 SPF)
Bit depth : 16 bits
Compression mode : Lossy
Stream size : 304 MiB (6%)
Title : iTunes
Language : Russian
Service kind : Complete Main
Default : Yes
Forced : Yes

Audio #2
ID : 3
Format : AC-3
Format/Info : Audio Coding 3
Codec ID : A_AC3
Duration : 1 h 50 min
Bit rate mode : Constant
Bit rate : 384 kb/s
Channel(s) : 6 channels
Channel positions : Front: L C R, Side: L R, LFE
Sampling rate : 48.0 kHz
Frame rate : 31.250 FPS (1536 SPF)
Bit depth : 16 bits
Compression mode : Lossy
Stream size : 304 MiB (6%)
Title : iTunes
Language : Ukrainian
Service kind : Complete Main
Default : No
Forced : No

Audio #3
ID : 4
Format : DTS
Format/Info : Digital Theater Systems
Codec ID : A_DTS
Duration : 1 h 50 min
Bit rate mode : Constant
Bit rate : 1 509 kb/s
Channel(s) : 6 channels
Channel positions : Front: L C R, Side: L R, LFE
Sampling rate : 48.0 kHz
Frame rate : 93.750 FPS (512 SPF)
Bit depth : 24 bits
Compression mode : Lossy
Stream size : 1.17 GiB (22%)
Title : Original
Language : English
Default : No
Forced : No

Text
ID : 5
Format : UTF-8
Codec ID : S_TEXT/UTF8
Codec ID/Info : UTF-8 Plain Text
Duration : 1 h 44 min
Bit rate : 64 b/s
Count of elements : 1492
Stream size : 49.6 KiB (0%)
Language : English
Default : No
Forced : No

Menu
00:00:00.000 : en:00:00:00.000
00:02:29.024 : en:00:02:29.024
00:08:36.808 : en:00:08:36.808
00:14:49.388 : en:00:14:49.388
00:19:43.057 : en:00:19:43.057
00:26:11.195 : en:00:26:11.195
00:29:59.548 : en:00:29:59.548
00:34:12.676 : en:00:34:12.676
00:41:59.600 : en:00:41:59.600
00:49:14.702 : en:00:49:14.702
00:57:12.304 : en:00:57:12.304
01:02:56.940 : en:01:02:56.940
01:09:40.551 : en:01:09:40.551
01:16:20.951 : en:01:16:20.951
01:20:38.125 : en:01:20:38.125
01:25:53.857 : en:01:25:53.857
01:29:14.224 : en:01:29:14.224
01:33:46.704 : en:01:33:46.704
01:39:06.524 : en:01:39:06.524
01:43:28.869 : en:01:43:28.869

pb.wtf



Скачать Опасный бизнес через торрент http://img12.lostpic.net/2018/05/23/fa2970d20c3d08e4f0cf1e687c62eb29.jpg Скачать, смотреть онлайн Опасный бизнес бесплантно в хорошем качестве Описание: Дерзкая длинноногая блондинка — она идеально подходит для опасного бизнеса. Однажды одному из ее подчиненных становится известна ... 10 10 4
Торрент: Зарегистрирован [2018-05-25 01:01] · скачан: 646 раз
Статус: √ проверено
Размер: 5.24 GB
Как cкачать? Как скачать Опасный бизнес через торрент | UTorrent

% Раздел Тема Автор DL S | L
Фильмы 2018 [DVDrip, WEB-DLRip, HDrip] (DUB, MVO) [ 2.52 GB ] Опасный бизнес / Gringo [2018 BDRip-AVC] - AVO [Есарев] - ExKinoRay Enigma2010 Скачать
2 | 0
Фильмы 2018 [DVDrip, WEB-DLRip, HDrip] (DUB, MVO) [ 1.41 GB ] Опасный бизнес / Gringo [2018 BDRip] DEVI Скачать
2 | 0
Фильмы (WEB-DL 720p, 1080p) [ 4.03 GB ] Опасный бизнес / Gringo [2018 WEB-DL 720p] DUB bober100 Скачать
1 | 0
Фильмы (Blu-ray, BD-Remux, HDDVD) [ 32.96 GB ] Опасный бизнес / Gringo [2018 BD Remux 1080p] AVO [Д. Есарев] +DUB bober100 Скачать
1 | 0

28-11-2019 20:33  

Отключить всю рекламу на сайте

08-06-2018 17:23 Опасный бизнес Скачать торрент  

Отличный фильм!!!! pb.wtf



    Дорогой пользователь! Огромная просьба, поблагодарите релизера, оцените раздачу и оставьте свои комментарий, если Вы скачали Опасный бизнес через торрент бесплатно!
    Комментировать посты могут только пользователи прошедшие не сложную регистрацию
    Показать сообщения:    

    Опасный бизнес через торрент
    Скачать бесплатно Опасный бизнес
    Опасный бизнес скачать торрент
    Опасный бизнес смотреть онлайн
    Cкачать фильм Опасный бизнес бесплатно
    Опасный бизнес скачать торрент в хорошем качестве
    Опасный бизнес смотреть онлайн бесплатно в хорошем качестве


    Вы не можете начинать темы
    Вы не можете отвечать на сообщения
    Вы не можете редактировать свои сообщения
    Вы не можете удалять свои сообщения
    Вы не можете голосовать в опросах
    Вы не можете прикреплять файлы к сообщениям
    Вы можете скачивать файлы