Ссылка на приватное зеркало всего за 1$. Внимание количество ограничено!!!

OK

1+1

iTunes

мы

OK

1

WEB-DLRip

Джокер

Пифагор

Ведьмак / The Witcher сериал

iTunes

ПШазам

ОК

Оно 2

iTunes

30
pack

Вам бонус

ВАЖНО

!!Акция!!

Alien_RageХит недели

RePack

Resident Evil 21

ИГРА 18+

pack

RePack

jed

RePack

fifa19

RePack

Assassins Creed: Odyssey

RePack

NEED FOR SPEED™ PAYBACK

4 сезон

9 сезон

Бесстыжие 9 сезон

Все сериалы

все сериалы на PB.wtf

RePack

FAR CRY 5
  

Ограбление в ураган / The Hurricane Heist (Роб Коэн) [2018, боевик, триллер, BDRip 1080p] DUB [iTunes] pb.wtf

Ограбление в ураган через торрент pb.wtf

Раздают: 1 [ 0 KB/s ]
Размер: 9.37 GB | Добавлен: 1 год 8 мес. назад | Торрент скачан:502 раза
Скачать  

25-05-2018 16:47 Ограбление в ураган Скачать торрент  

Ограбление в ураган / The Hurricane Heist
Год выпуска: 2018
Страна: США
Жанр: боевик, триллер
Продолжительность: 01:43:05
Перевод: Дублированный | iTunes
Субтитры: Английские

Режиссер: Роб Коэн

rating

В ролях:

Тоби Кеббелл, Мэгги Грэйс, Райан Квантен, Ралф Айнесон, Мелисса Болона, Бен Кросс, Джэми Эндрю Катлер, Кристиан Райан Контрерас, Эд Бирч

Описание:

На побережье Америки стремительно надвигается ураган. Тем временем банда воров планирует идеальное ограбление: украсть 600 миллионов долларов из казначейства США, воспользовавшись стихийным бедствием как прикрытием. Но когда разбушевавшийся ураган усиливается до смертельно опасной Категории 5, тщательно продуманный план ограбления века трещит по швам...

Качество: BDRip 1080p
Формат: MKV

Видео: MPEG-4 AVC, 1920x800, 12.0 Мbit/s, 23.976 fps
Аудио#1: 48 kHz, AC3, 5.1, 384 Kbps | iTunes | RUS |
Аудио#2: 48 kHz, AC3, 5.1, 640 Kbps | Оригинал | ENG |
скриншот   скриншот   скриншот  

General
Unique ID : 111488973509111205488662420582315910510 (0x53DFFEC9086EE1E019136C644098E56E)
Complete name : C:Video111Hurricane.Heist.2018.BDRip.1080p.ExKinoRay.mkv
Format : Matroska
Format version : Version 4 / Version 2
File size : 9.37 GiB
Duration : 1 h 43 min
Overall bit rate : 13.0 Mb/s
Movie name : Hurricane Heist 2018 from ExKinoRay
Encoded date : UTC 2018-05-25 09:49:36
Writing application : mkvmerge v22.0.0 ('At The End Of The World') 64-bit
Writing library : libebml v1.3.5 + libmatroska v1.4.8

Video
ID : 1
Format : AVC
Format/Info : Advanced Video Codec
Format profile : High@L4.1
Format settings : CABAC / 5 Ref Frames
Format settings, CABAC : Yes
Format settings, ReFrames : 5 frames
Codec ID : V_MPEG4/ISO/AVC
Duration : 1 h 43 min
Bit rate : 12.0 Mb/s
Width : 1 920 pixels
Height : 800 pixels
Display aspect ratio : 2.40:1
Frame rate mode : Constant
Frame rate : 23.976 (24000/1001) FPS
Color space : YUV
Chroma subsampling : 4:2:0
Bit depth : 8 bits
Scan type : Progressive
Bits/(Pixel*Frame) : 0.326
Stream size : 8.63 GiB (92%)
Writing library : x264 core 148 r2665kMod a01e339
Encoding settings : cabac=1 / ref=5 / deblock=1:-3:-3 / analyse=0x3:0x133 / me=umh / subme=11 / psy=1 / fade_compensate=0.00 / psy_rd=0.85:0.00 / mixed_ref=1 / me_range=48 / chroma_me=1 / trellis=2 / 8x8dct=1 / cqm=0 / deadzone=21,11 / fast_pskip=0 / chroma_qp_offset=-2 / threads=24 / lookahead_threads=4 / sliced_threads=0 / nr=0 / decimate=0 / interlaced=0 / bluray_compat=0 / constrained_intra=0 / fgo=0 / bframes=8 / b_pyramid=2 / b_adapt=2 / b_bias=0 / direct=3 / weightb=1 / open_gop=0 / weightp=2 / keyint=240 / keyint_min=24 / scenecut=40 / intra_refresh=0 / rc=2pass / mbtree=0 / bitrate=12000 / ratetol=1.0 / qcomp=0.70 / qpmin=0 / qpmax=69 / qpstep=4 / cplxblur=20.0 / qblur=0.5 / ip_ratio=1.20 / pb_ratio=1.20 / aq=3:0.80
Language : English
Default : Yes
Forced : No

Audio #1
ID : 2
Format : AC-3
Format/Info : Audio Coding 3
Codec ID : A_AC3
Duration : 1 h 43 min
Bit rate mode : Constant
Bit rate : 384 kb/s
Channel(s) : 6 channels
Channel positions : Front: L C R, Side: L R, LFE
Sampling rate : 48.0 kHz
Frame rate : 31.250 FPS (1536 SPF)
Bit depth : 16 bits
Compression mode : Lossy
Stream size : 283 MiB (3%)
Title : iTunes
Language : Russian
Service kind : Complete Main
Default : Yes
Forced : Yes

Audio #2
ID : 3
Format : AC-3
Format/Info : Audio Coding 3
Codec ID : A_AC3
Duration : 1 h 43 min
Bit rate mode : Constant
Bit rate : 640 kb/s
Channel(s) : 6 channels
Channel positions : Front: L C R, Side: L R, LFE
Sampling rate : 48.0 kHz
Frame rate : 31.250 FPS (1536 SPF)
Bit depth : 16 bits
Compression mode : Lossy
Stream size : 472 MiB (5%)
Title : Original
Language : English
Service kind : Complete Main
Default : No
Forced : No

Text
ID : 4
Format : UTF-8
Codec ID : S_TEXT/UTF8
Codec ID/Info : UTF-8 Plain Text
Duration : 1 h 33 min
Bit rate : 51 b/s
Count of elements : 994
Stream size : 35.2 KiB (0%)
Language : English
Default : No
Forced : No

Menu
00:00:00.000 : en:00:00:00.000
00:05:41.258 : en:00:05:41.258
00:13:15.253 : en:00:13:15.253
00:20:49.456 : en:00:20:49.456
00:25:48.046 : en:00:25:48.046
00:30:08.974 : en:00:30:08.974
00:35:00.890 : en:00:35:00.890
00:40:40.813 : en:00:40:40.813
00:45:48.162 : en:00:45:48.162
00:52:34.359 : en:00:52:34.359
01:00:22.244 : en:01:00:22.244
01:06:49.881 : en:01:06:49.881
01:11:02.341 : en:01:11:02.341
01:17:43.951 : en:01:17:43.951
01:25:06.351 : en:01:25:06.351
01:32:38.595 : en:01:32:38.595

pb.wtf



Скачать Ограбление в ураган через торрент http://i104.fastpic.ru/big/2018/0418/01/69e67d3fb1a6c06a87e9195878d3ad01.jpg Скачать фильм Ограбление в ураган через торрент бесплантно в хорошем качестве Описание: На побережье Америки стремительно надвигается ураган. Тем временем банда воров планирует идеальное ограбление: украсть 600 ... 9.1 10 10
Info! Золотая раздача, скачанное не засчитывается.
Торрент: Зарегистрирован [2018-05-25 16:47] · скачан: 502 раз
Статус: √ проверено
Размер: 9.37 GB
Как cкачать? Как скачать Ограбление в ураган через торрент | qTorrent

% Раздел Тема Автор DL S | L
Ultra HD (UHD: 2K, 4K, 8K) — видео сверхвысокой чёткости [ 26.69 GB ] Ограбление в ураган / The Hurricane Heist [2018 UHD BDRip 2160p] sheker187 Скачать
1 | 0
Ultra HD (UHD: 2K, 4K, 8K) — видео сверхвысокой чёткости [ 60.39 GB ] Ограбление в ураган / The Hurricane Heist [2018 UHD BDRemux 2160p] bober100 Скачать
2 | 0
Фильмы 2018 [DVDrip, WEB-DLRip, HDrip] (DUB, MVO) [ 1.41 GB ] Ограбление в ураган / The Hurricane Heist [2018 BDRip] - Twi7ter Скачать
2 | 0
Фильмы [HD 720p, 1080p] (Хороший звук DUB, MVO) [ 3.91 GB ] Ограбление в ураган / The Hurricane Heist [2018 BDRip 1080p HEVC ] Мичман37 Скачать
1 | 0
Фильмы 2018 [DVDrip, WEB-DLRip, HDrip] (DUB, MVO) [ 2.06 GB ] Ограбление в ураган / The Hurricane Heist [2018 BDRip-AVC] - ExKinoRay Enigma2010 Скачать
2 | 0
Фильмы 2018 [DVDrip, WEB-DLRip, HDrip] (DUB, MVO) [ 1.92 GB ] Ограбление в ураган / The Hurricane Heist [2018 WEB-DLRip-AVC] - ExKinoRay Enigma2010 Скачать
2 | 0
R.G. Resident & PiratVoice - Фильмы, Видео [ 1.46 GB ] Ограбление в ураган / The Hurricane Heist [2018 BDRip от R.G. Resident] -Lexx- Скачать
1 | 0

28-11-2019 20:33  

Отключить всю рекламу на сайте

16-07-2018 12:44 Ограбление в ураган Скачать торрент  

Опять гоночки, детский сад да? как и все части форсажа?pb.wtf



    Дорогой пользователь! Огромная просьба, поблагодарите релизера, оцените раздачу и оставьте свои комментарий, если Вы скачали Ограбление в ураган через торрент бесплатно! Внесите свою лепту в развитие PiratBit!
    Комментировать посты могут только пользователи прошедшие не сложную регистрацию
    Показать сообщения:    

    Ограбление в ураган через торрент
    Скачать бесплатно Ограбление в ураган
    Ограбление в ураган скачать торрент
    Ограбление в ураган смотреть онлайн
    Cкачать фильм Ограбление в ураган бесплатно
    Ограбление в ураган скачать торрент в хорошем качестве
    Ограбление в ураган смотреть онлайн бесплатно в хорошем качестве


    Вы не можете начинать темы
    Вы не можете отвечать на сообщения
    Вы не можете редактировать свои сообщения
    Вы не можете удалять свои сообщения
    Вы не можете голосовать в опросах
    Вы не можете прикреплять файлы к сообщениям
    Вы можете скачивать файлы