Ссылка на приватное зеркало нашего сайта всего за 1$. Внимание количество ограничено!!!

2 сезон

iTunes

1 сезон

1

iTunes

iTunes

iTunes

1 сезон

RePack

30

ИГРА 18+

pack

ВАЖНО

!!Акция!!

Alien_RageХит недели

RePack

MK11
pack

Забери бонус

RePack

jed

!!Акция!!

Alien_Rage

RePack

fifa19

RePack

Assassins Creed: Odyssey

RePack

NEED FOR SPEED™ PAYBACK

4 сезон

9 сезон

Бесстыжие 9 сезон

Все сериалы

все сериалы на PB.wtf

RePack

FAR CRY 5
  

Три дня на любовь / Серии: 1-2 из 2 (Илья Хотиненко) [2018, мелодрама, WEB-DLRip] pb.wtf

Три дня на любовь через торрент pb.wtf

Размер: 1.09 GB | Добавлен: 2 года 4 мес. назад | Торрент скачан:40 раз
Скачать  

25-05-2018 19:11 Три дня на любовь Скачать торрент  

Три дня на любовьГод выпуска: 2018
Страна: Россия
Жанр: мелодрама
Продолжительность: ~ 00:50:00
Перевод: Не требуется
Субтитры: отсутствуют

Режиссер: Илья Хотиненко



В ролях:

Иван Оганесян, Екатерина Гудина, Юлианна Михневич, Виктор Супрун, Анна Миклош, Роман Евдокимов, Игорь Денисов, Михаил Клименко

Описание:

Через три дня двадцатилетней Маше Петровой предстоит серьёзная операция на сердце. Шансы, что Маша выживет, невелики, и вся надежда на талантливого кардиохирурга Аркадия Маркова. С разрешения родителей, которые все 20 лет не оставляли дочь без присмотра, Маша на три дня едет в приморский городок к своему другу детства. Устав от семейных неурядиц, в преддверии развода, Марков тоже решает провести три дня до назначенной операции на море

Качество: WEB-DLRip
Формат: AVI

Видео: XviD build 73, 720x400 (16:9), 25.000 fps, ~ 1400 Kbps (~ 0.190 bit/pixel)
Аудио: 48.0 kHz, MP3, 2/0 ch, 160 kbps
скриншот   скриншот   скриншот   скриншот  

Общее
Полное имя : F:\Tri.Dnja.Na.Ljubovj.2017.XviD.WEB-DLRip.GeneralFilm\Serija.e01.avi
Формат : AVI
Формат/Информация : Audio Video Interleave
Размер файла : 557 Мбайт
Продолжительность : 49 м. 57 с.
Общий поток : 1559 Кбит/сек
Программа кодирования : VirtualDubMod 1.5.10.3 | www.virtualdub-fr.org || (build 2550/release)
Библиотека кодирования : VirtualDubMod build 2550/release

Видео
Идентификатор : 0
Формат : MPEG-4 Visual
Профиль формата : Advanced Simple@L5
Параметр BVOP формата : 1
Параметр QPel формата : Нет
Параметр GMC формата : Без точки перехода
Параметр матрицы формата : Default (H.263)
Идентификатор кодека : XVID
Идентификатор кодека/Подсказка : XviD
Продолжительность : 49 м. 57 с.
Битрейт : 1529 Кбит/сек
Ширина : 720 пикселей
Высота : 400 пикселей
Соотношение сторон : 16:9
Частота кадров : 25,000 кадров/сек
Цветовое пространство : YUV
Субдискретизация насыщенности : 4:2:0
Битовая глубина : 8 бит
Тип развёртки : Прогрессивная
Метод сжатия : С потерями
Бит/(Пиксели*Кадры) : 0.185
Размер потока : 475 Мбайт (85%)
Библиотека кодирования : XviD 73

Аудио
Идентификатор : 1
Формат : MPEG Audio
Версия формата : Version 1
Профиль формата : Layer 3
Идентификатор кодека : 55
Идентификатор кодека/Подсказка : MP3
Продолжительность : 49 м. 57 с.
Вид битрейта : Постоянный
Битрейт : 160 Кбит/сек
Каналы : 2 канала
Частота : 48,0 КГц
Метод сжатия : С потерями
Размер потока : 57,2 Мбайт (10%)
Выравнивание : Соединение по промежуткам
Библиотека кодирования : LAME3.99r
Настройки программы : -m s -V 4 -q 0 -lowpass 17.5 -b 160

pb.wtf



Скачать Три дня на любовь через торрент http://i104.fastpic.ru/big/2018/0524/0d/94cd905331af7813646865abd46cbe0d.png Скачать фильм Три дня на любовь через торрент бесплантно в хорошем качестве Описание: Через три дня двадцатилетней Маше Петровой предстоит серьёзная операция на сердце. Шансы, что Маша выживет, невелики, и вся ... 10 10 6
Торрент: Зарегистрирован [2018-05-25 19:11] · скачан: 40 раз
Статус: √ проверено
Размер: 1.09 GB
Как cкачать? Как скачать Три дня на любовь через торрент | qTorrent

% Раздел Тема Автор DL S | L
Наши сериалы [ 1.24 GB ] Три дня на любовь / Серии: 1-2 из 2 [2018 WEB-DLRip-AVC] bober100 Скачать
1 | 0
Наши сериалы [ 1.16 GB ] Три дня на любовь / Серии: 1-2 из 2 [2017 SATRip-AVC] aleksan55 Скачать
1 | 0

28-11-2019 20:33  

Отключить всю рекламу на сайте

    Дорогой пользователь! Огромная просьба, поблагодарите релизера, оцените раздачу и оставьте свои комментарий, если Вы скачали Три дня на любовь через торрент бесплатно! Внесите свою лепту в развитие PiratBit!
    Комментировать посты могут только пользователи прошедшие не сложную регистрацию
    Показать сообщения:    

    Три дня на любовь через торрент
    Скачать бесплатно Три дня на любовь
    Три дня на любовь скачать торрент
    Три дня на любовь смотреть онлайн
    Cкачать фильм Три дня на любовь бесплатно
    Три дня на любовь скачать торрент в хорошем качестве
    Три дня на любовь смотреть онлайн бесплатно в хорошем качестве


    Вы не можете начинать темы
    Вы не можете отвечать на сообщения
    Вы не можете редактировать свои сообщения
    Вы не можете удалять свои сообщения
    Вы не можете голосовать в опросах
    Вы не можете прикреплять файлы к сообщениям
    Вы можете скачивать файлы