Ссылка на приватное зеркало нашего сайта всего за 1$. Внимание количество ограничено!!!

2 сезон

iTunes

1 сезон

1

2 сезон

2 сезон

iTunes

1 сезон

RePack

30

Новинка

ВАЖНО

ИГРА 18+

pack

RePack

MK11
pack

Забери бонус

RePack

jed

!!Акция!!

Alien_Rage

RePack

fifa19

RePack

Assassins Creed: Odyssey

RePack

NEED FOR SPEED™ PAYBACK

4 сезон

9 сезон

Бесстыжие 9 сезон

Все сериалы

все сериалы на PB.wtf

RePack

FAR CRY 5
  

Бремя / Cargo (Бен Хоулинг, Иоланда Рамке) [2017, Драма, ужасы, WEBRip 1080p] MVO [HDrezka Studio] pb.wtf

Бремя через торрент pb.wtf

Размер: 4.1 GB | Добавлен: 2 года 6 мес. назад | Торрент скачан:399 раз
Скачать  

25-05-2018 20:40 Бремя Скачать торрент  

Бремя / Cargo
Год выпуска: 2017
Страна: Австралия
Жанр: Драма, ужасы
Продолжительность: 01:46:16
Перевод: Профессиональный (многоголосый) | HDRezka studio
Субтитры: Русские, английские

Режиссер: Бен Хоулинг, Иоланда Рамке

rating

В ролях:

Мартин Фриман, Энтони Хэйес, Сьюзи Портер, Карин Пиритос, Крис МакКвейд, Наташа Вэнганин, Брюс Картер, Симоне Ландерс, Дэвид Галпилил, Джоесиа Амос

Описание:

Во время зомби-апокалипсиса у мужчины погибает жена, и он остается с дочерью-младенцем. Но его тоже укусили, и теперь у отца осталось 48 часов, чтобы успеть найти опекунов для малышки.

Качество: WEBRip 1080p
Формат: MKV

Видео: AVC/H.264, 1920x1080, ~5110 kbps, 24 fps
Аудио#1: AC3, 2 ch, 192 Kbps - Русский
Аудио#2: AC3, 6 ch, 384 Kbps - Английский
скриншот   скриншот   скриншот   скриншот  

Общее
Уникальный идентификатор : 201976778203017463801213259458711006582 (0x97F3500163C2FE7590C9E6FF95BA2D76)
Полное имя : Cargo.2017.WEBRip.1080p.mkv
Формат : Matroska
Версия формата : Version 4 / Version 2
Размер файла : 4,10 Гбайт
Продолжительность : 1 ч. 44 м.
Режим общего битрейта : Переменный
Общий поток : 5634 Кбит/сек
Дата кодирования : UTC 2018-05-25 19:28:29
Программа кодирования : mkvmerge v23.0.0 ('The Bride Said No') 64-bit
Библиотека кодирования : libebml v1.3.6 + libmatroska v1.4.9

Видео
Идентификатор : 1
Формат : AVC
Формат/Информация : Advanced Video Codec
Профиль формата : Main@L4
Настройки формата : CABAC / 3 Ref Frames
Параметр CABAC формата : Да
Параметр RefFrames формата : 3 кадра
Идентификатор кодека : V_MPEG4/ISO/AVC
Продолжительность : 1 ч. 44 м.
Вид битрейта : Переменный
Битрейт : 5110 Кбит/сек
Максимальный битрейт : 7665 Кбит/сек
Ширина : 1920 пикселей
Высота : 1080 пикселей
Соотношение сторон : 16:9
Режим частоты кадров : Постоянный
Частота кадров : 24,000 кадра/сек
Цветовое пространство : YUV
Субдискретизация насыщенности : 4:2:0
Битовая глубина : 8 бит
Тип развёртки : Прогрессивная
Бит/(Пиксели*Кадры) : 0.103
Размер потока : 3,68 Гбайт (90%)
Библиотека кодирования : x264 core 148
Настройки программы : cabac=1 / ref=3 / deblock=1:0:0 / analyse=0x1:0x111 / me=umh / subme=10 / psy=1 / psy_rd=1.00:0.00 / mixed_ref=1 / me_range=24 / chroma_me=1 / trellis=2 / 8x8dct=0 / cqm=0 / deadzone=21,11 / fast_pskip=1 / chroma_qp_offset=-2 / threads=8 / lookahead_threads=1 / sliced_threads=0 / nr=0 / decimate=1 / interlaced=0 / bluray_compat=0 / stitchable=1 / constrained_intra=0 / bframes=2 / b_pyramid=0 / b_adapt=2 / b_bias=0 / direct=3 / weightb=1 / open_gop=0 / weightp=2 / keyint=48 / keyint_min=25 / scenecut=0 / intra_refresh=0 / rc_lookahead=48 / rc=2pass / mbtree=1 / bitrate=5110 / ratetol=1.0 / qcomp=0.50 / qpmin=6 / qpmax=51 / qpstep=4 / cplxblur=20.0 / qblur=0.5 / vbv_maxrate=7665 / vbv_bufsize=10220 / nal_hrd=vbr / filler=0 / ip_ratio=1.40 / aq=1:1.00
Язык : English
Default : Да
Forced : Нет

Аудио #1
Идентификатор : 2
Формат : AC-3
Формат/Информация : Audio Coding 3
Идентификатор кодека : A_AC3
Продолжительность : 1 ч. 44 м.
Вид битрейта : Постоянный
Битрейт : 192 Кбит/сек
Каналы : 2 канала
Расположение каналов : Front: L R
Частота : 48,0 КГц
Частота кадров : 31,250 кадров/сек (1536 SPF)
Битовая глубина : 16 бит
Метод сжатия : С потерями
Размер потока : 143 Мбайт (3%)
Заголовок : MVO (HDrezka Studio)
Язык : Russian
ServiceKind : Complete Main
Default : Да
Forced : Нет

Аудио #2
Идентификатор : 3
Формат : AC-3
Формат/Информация : Audio Coding 3
Идентификатор кодека : A_AC3
Продолжительность : 1 ч. 44 м.
Вид битрейта : Постоянный
Битрейт : 384 Кбит/сек
Каналы : 6 каналов
Расположение каналов : Front: L C R, Side: L R, LFE
Частота : 48,0 КГц
Частота кадров : 31,250 кадров/сек (1536 SPF)
Битовая глубина : 16 бит
Метод сжатия : С потерями
Размер потока : 286 Мбайт (7%)
Язык : English
ServiceKind : Complete Main
Default : Нет
Forced : Нет

Текст #1
Идентификатор : 4
Формат : UTF-8
Идентификатор кодека : S_TEXT/UTF8
Идентификатор кодека/Информация : UTF-8 Plain Text
Продолжительность : 1 ч. 29 м.
Битрейт : 41 бит/сек
ElementCount : 626
Размер потока : 27,1 Кбайт (0%)
Заголовок : Full (Focs)
Язык : Russian
Default : Нет
Forced : Нет

Текст #2
Идентификатор : 5
Формат : UTF-8
Идентификатор кодека : S_TEXT/UTF8
Идентификатор кодека/Информация : UTF-8 Plain Text
Продолжительность : 1 ч. 42 м.
Битрейт : 27 бит/сек
ElementCount : 884
Размер потока : 20,6 Кбайт (0%)
Язык : English
Default : Нет
Forced : Нет

pb.wtf



Скачать Бремя через торрент http://a.radikal.ru/a21/1805/85/a791142e80d1.jpg Скачать фильм Бремя через торрент бесплантно в хорошем качестве Описание: Во время зомби-апокалипсиса у мужчины погибает жена, и он остается с дочерью-младенцем. Но его тоже укусили, и теперь у отца ... 9.7 10 11
Торрент: Зарегистрирован [2018-05-25 20:40] · скачан: 399 раз
Статус: √ проверено
Размер: 4.1 GB
Как cкачать? Как скачать Бремя через торрент | qTorrent

% Раздел Тема Автор DL S | L
Фильмы 2017 [DVDrip, WEB-DLRip, HDrip] (DUB, MVO) [ 1.46 GB ] Бремя / Cargo [2017 WEBRip] MVO [HDrezka Studio] bober100 Скачать
1 | 0
Фильмы (WEB-DL 720p, 1080p) [ 2.29 GB ] Бремя / Cargo [2017 WEBRip 720p] MVO [HDrezka Studio] bober100 Скачать
1 | 0

28-11-2019 20:33  

Отключить всю рекламу на сайте

26-05-2018 07:09 Бремя Скачать торрент  

когда будет дубляж не известно, бум так смотреть) спасибоpb.wtf



26-05-2018 07:25 Бремя Скачать торрент  

GuruBrain писал(а):

когда будет дубляж не известно, бум так смотреть) спасибо

Его не будет можешь не ждатьpb.wtf



    Дорогой пользователь! Огромная просьба, поблагодарите релизера, оцените раздачу и оставьте свои комментарий, если Вы скачали Бремя через торрент бесплатно! Внесите свою лепту в развитие PiratBit!
    Комментировать посты могут только пользователи прошедшие не сложную регистрацию
    Показать сообщения:    

    Бремя через торрент
    Скачать бесплатно Бремя
    Бремя скачать торрент
    Бремя смотреть онлайн
    Cкачать фильм Бремя бесплатно
    Бремя скачать торрент в хорошем качестве
    Бремя смотреть онлайн бесплатно в хорошем качестве


    Вы не можете начинать темы
    Вы не можете отвечать на сообщения
    Вы не можете редактировать свои сообщения
    Вы не можете удалять свои сообщения
    Вы не можете голосовать в опросах
    Вы не можете прикреплять файлы к сообщениям
    Вы можете скачивать файлы